Other

The Sopranos Complete 5th Season [DVDRip XviD]BigDadE

  • Download Faster
  • Download torrent
  • Direct Download
  • Rate this torrent +  |  -
The Sopranos Complete 5th Season [DVDRip XviD]BigDadE

Download Anonymously! Get Protected Today And Get your 70% discount


Torrent info

Name:The Sopranos Complete 5th Season [DVDRip XviD]BigDadE

Infohash: A2FCA16C0A999A28291B7467E4B75D97FC17AE42

Total Size: 4.64 GB

Seeds: 0

Leechers: 0

Stream: Watch Full Movie @ Movie4u

Last Updated: 0000-00-00 00:00:00 (Update Now)

Torrent added: 2009-11-18 14:01:18






Torrent Files List


The Sopranos - S05E08 - Marco Polo.avi (Size: 4.64 GB) (Files: 19)

 The Sopranos - S05E08 - Marco Polo.avi

399.34 MB

 The Sopranos - S05E03 - Where's Johnny.avi

388.04 MB

 The Sopranos - S05E12 - Long Term Parking.avi

384.27 MB

 The Sopranos - S05E06 - Sentimental Education.avi

383.39 MB

 The Sopranos - S05E09 - Unidentified Black Males.avi

382.35 MB

 The Sopranos - S05E05 - Irregular Around the Margins.avi

380.07 MB

 The Sopranos - S05E07 - In Camelot.avi

377.67 MB

 The Sopranos - S05E04 - All Happy Families.avi

359.24 MB

 The Sopranos - S05E01 - Two Tonys.avi

351.66 MB

 The Sopranos - S05E02 - Rat Pack.avi

350.72 MB

 The Sopranos - S05E13 - All Due Respect.avi

348.53 MB

 The Sopranos - S05E10 - Cold Cuts.avi

345.89 MB

 The Sopranos - S05E11 - The Test Dream.avi

297.10 MB

 The Sopranos - Complete 5th Season [DVDRip.XviD][h33t][big_dad_e].jpg

168.80 KB

 big_dad_e.jpg

17.05 KB

 The Sopranos - Complete 5th Season [DVDRip.XviD][h33t][big_dad_e].txt

5.90 KB

 big_dad_e.txt

2.94 KB

 Torrent downloaded from Demonoid.com.txt

0.05 KB

 tracked_by_h33t_com.txt

0.02 KB
 

Announce URL: http://tracker.mininova.org/announce

Torrent description

Called "the television landmark that leaves other landmarks in the dust," by the Washington Post, the first part of Season Six was hailed as a masterpiece by critics. In those episodes, Tony Soprano faced new challenges as his life grew increasingly more complicated. Back together with Carmela, he faced the reality that their kids were no longer children, and yet not grown. And with Johnny Sack in prison, the always-tense relations between the New Jersey and New York families were strained even further.

As Season Six continues, he'll be facing new stresses, including life-altering decisions at home, pressure from the law, and trouble on the job that leaves no one - no one - above suspicion.

Creator David Chase's drama series stars three-time Emmy® winners James Gandolfini as Tony Soprano and Edie Falco as Tony's wife Carmela, plus Lorraine Bracco as therapist Dr. Jennifer Melfi, Emmy® winner Michael Imperioli as Tony's nephew Christopher Moltisanti, and Dominic Chianese as Uncle Junior. Also on hand for Season six are regulars Robert Iler as Anthony Soprano, Jr., Jamie-Lynn Sigler as Meadow Soprano, Tony Sirico as Paulie Walnuts, and Steven Van Zandt as Silvio Dante.

Aida Turturro, who plays Tony's sister Janice, returned to the show as a series regular, as well as Steven R. Schirripa as Bobby "Bacala" Baccalieri, John Ventimiglia as Artie Bucco, and Vincent Curatola as Johnny Sack.

Other Season Six cast members of The Sopranos are Ray Abruzzo as Carmine, Frank Vincent as Phil Leotardo, Peter Bogdanovich as Dr. Elliot Kupferberg, Vincent Pastore as "Big Pussy" Bonpensiero, Joe Gannascoli as Vito Spatafore, Max Casella as Benny, Lenny Venito as Murmur, Carl Capotoro as Little Paulie, Dan Grimaldi as Patsy, Katherine Narducci as Charmaine Bucco, Sharon Angela as Rosalie Aprile, Maureen Van Zandt as Gabrielle Dante and Toni Kalem as Angie Bompensiero.

Guest stars for the sixth season include Daniel Baldwin, Sydney Pollack, Nancy Sinatra, Jonathan LaPaglia, David Margulies, Geraldo Rivera, Ken Leung, Frank John Hughes, Jerry Adler, Tim Daly, Frankie Valli, Hal Holbrook, Ben Kingsley, Julianna Margulies, Treach, Ron Leibman, Elizabeth Bracco and Lord Jamar.

THE SOPRANOS is a production of HBO Original Programming, Brad Grey Television and Chase Films; executive producers, David Chase, Brad Grey, Ilene S. Landress, Terence Winter; co-executive producers, Henry J. Bronchtein and Matthew Weiner; supervising producers, Diane Frolov & Andrew Schneider; producers, Martin Bruestle and Gianna Smart.

Season 5 Episodes:

53 Two Tony's

54 Rat Pack

55 Where's Johnny

56 All Happy Families

57 Irregular Around the Margins

58 Sentimental Education

59 In Camelot

60 Marco Polo

61 Unidentified Black Males

62 Cold Cuts

63 The Test Dream

64 Long Term Parking

65 All Due Respect

File Confirmation:
(Sample)
General
Complete name : J:\Movies\The Sopranos - Complete 5th Season [DVDRip.XviD][h33t][big_dad_e]\The Sopranos - S05E01 - Two Tonys.avi
Format : AVI
Format/Info : Audio Video Interleave
File size : 352 MiB
Duration : 53mn 43s
Overall bit rate : 915 Kbps
Writing application : VirtualDubMod 1.5.4.1 (build 2178/release)
Writing library : VirtualDubMod build 2178/release

Video
ID : 0
Format : MPEG-4 Visual
Format profile : [email protected]
Format settings, BVOP : Yes
Format settings, QPel : No
Format settings, GMC : No warppoints
Format settings, Matrix : Custom
Codec ID : XVID
Codec ID/Hint : XviD
Duration : 53mn 43s
Bit rate : 717 Kbps
Width : 720 pixels
Height : 416 pixels
Display aspect ratio : 16:9
Frame rate : 23.976 fps
Resolution : 24 bits
Colorimetry : 4:2:0
Scan type : Progressive
Bits/(Pixel*Frame) : 0.100
Stream size : 275 MiB (78%)
Writing library : XviD 1.2.0.dev45 (UTC 2006-07-10)

Audio
ID : 1
Format : AC-3
Format/Info : Audio Coding 3
Format profile : Dolby Digital
Codec ID : 2000
Duration : 53mn 43s
Bit rate mode : Constant
Bit rate : 192 Kbps
Channel(s) : 2 channels
Channel positions : L R
Sampling rate : 48.0 KHz
Stream size : 73.8 MiB (21%)
Alignment : Split accross interleaves
Interleave, duration : 96 ms (2.30 video frames)
Interleave, preload duration : 96 ms
Language : English

File Scan:
Malwarebytes' Anti-Malware 1.41
Database version: 3188
Windows 5.1.2600 Service Pack 3

11/17/2009 9:24:00 PM
mbam-log-2009-11-17 (21-24-00).txt

Scan type: Quick Scan
Objects scanned: 1
Time elapsed: 16 second(s)

Memory Processes Infected: 0
Memory Modules Infected: 0
Registry Keys Infected: 0
Registry Values Infected: 0
Registry Data Items Infected: 0
Folders Infected: 0
Files Infected: 0

Memory Processes Infected:
(No malicious items detected)

Memory Modules Infected:
(No malicious items detected)

Registry Keys Infected:
(No malicious items detected)

Registry Values Infected:
(No malicious items detected)

Registry Data Items Infected:
(No malicious items detected)

Folders Infected:
(No malicious items detected)

Files Infected:
(No malicious items detected)

ALWAYS SEED OR Fugetaboutit!!
Bada Bing!

related torrents

Torrent name

health leech seeds Size
 


comments (0)

Main Menu