Movies - Other

Where the Wild Things Are Dvdscr XviD MAX

  • Download Faster
  • Download torrent
  • Direct Download
  • Rate this torrent +  |  -
Where the Wild Things Are Dvdscr XviD MAX

Download Anonymously! Get Protected Today And Get your 70% discount


Torrent info

Name:Where the Wild Things Are Dvdscr XviD MAX

Infohash: 8B749A85654CE7F4EA31CCD1361FFEDFA7A39416

Total Size: 708.10 MB

Seeds: 0

Leechers: 0

Stream: Watch Full Movie @ Movie4u

Last Updated: 2010-06-24 17:06:20 (Update Now)

Torrent added: 2010-01-23 18:06:42






Torrent Files List


Where the Wild Things Are Dvdscr XviD-MAX.avi (Size: 708.10 MB) (Files: 2)

 Where the Wild Things Are Dvdscr XviD-MAX.avi

708.10 MB

 info.txt

1.34 KB
 

Announce URL: http://tracker.thepiratebay.org/announce

Torrent description



Format : AVI
Format/Info : Audio Video Interleave
Duration : 2h 8mn
Overall bit rate : 1 517 Kbps
Writing application : VirtualDubMod 1.5.10.2 (build 2542/release)
Writing library : VirtualDubMod build 2542/release
Original source form : MAX TORRENTZ
Copyright : SIGISMUNT

Video
Format : xvid
Codec ID : xvid
Duration : 2h 8mn
Bit rate : 1 376 Kbps
Width : 704 pixels
Height : 384 pixels
Display aspect ratio : 16:9
Frame rate : 23.976 fps
Resolution : 24 bits
Bits/(Pixel*Frame) : 0.212
Stream size : 1.23 GiB (91%)

Audio
ID : 1
Format : MPEG Audio
Format version : Version 1
Format profile : Layer 3
Codec ID : 55
Codec ID/Hint : MP3
Duration : 2h 8mn
Bit rate mode : Constant
Bit rate : 128 Kbps
Channel(s) : 2 channels
Sampling rate : 48.0 KHz
Resolution : 16 bits
Stream size : 118 MiB (8%)
Alignment : Aligned on interleaves
Interleave, duration : 24 ms (0.58 video frame)
Interleave, preload duration : 504 ms
http://www.imdb.com/title/tt0988045/

Screens:
Where the Wild Things Are Dvdscr XviD MAX preview 0
Where the Wild Things Are Dvdscr XviD MAX preview 1
Where the Wild Things Are Dvdscr XviD MAX preview 2
Where the Wild Things Are Dvdscr XviD MAX preview 3

ScreenCaps:
Where the Wild Things Are Dvdscr XviD MAX preview 4

related torrents

Torrent name

health leech seeds Size
 


comments (0)

Main Menu