Other

American Outlaws 2001 Dvdrip

  • Download Faster
  • Download torrent
  • Direct Download
  • Rate this torrent +  |  -
American Outlaws 2001 Dvdrip

Download Anonymously! Get Protected Today And Get your 70% discount


Torrent info

Name:American Outlaws 2001 Dvdrip

Infohash: DA28A087F3927CAB23A2F195F43FBDAE8B50B8D5

Total Size: 751.00 MB

Seeds: 1

Leechers: 14

Stream: Watch Full Movie @ Movie4u

Last Updated: 2010-09-22 08:42:54 (Update Now)

Torrent added: 2010-06-27 10:05:03






Torrent Files List


 

Announce URL: http://nemesis.1337x.org/announce

Torrent description

American Outlaws 2001 DVDrip











cooltext460587453.png











americanoutlaws.jpg











cooltext4605871442.png











American Outlaws 2001 DVDrip.mp4

format: MP4

File size : 751 MiB

Duration : 1h 30mn

Overall bit rate : 1 155 Kbps

Encoded date : UTC 2010-06-27 05:18:09

Tagged date : UTC 2010-06-27 05:18:09





Video

ID : 1

Format : AVC

Format/Info : Advanced Video Codec

Format profile : [email protected]

Codec ID/Info : AVC

Duration : 1h 30mn

Bit rate mode : Variable

Bit rate : 1 024 Kbps

Width : 640 pixels

Height : 480 pixels

Display aspect ratio : 4:3

Frame rate mode : Constant

Frame rate : 25.000 fps

Color space : YUV

Chroma subsampling : 4:2:0

Bit depth : 8 bits

Scan type : Progressive

Bits/(Pixel*Frame) : 0.133

Stream size : 665 MiB (89%)

Writing library : x264 core 77

Encoded date : UTC 2010-06-27 05:18:09

Tagged date : UTC 2010-06-27 05:18:09



Audio

ID : 2

Format : AAC

Format/Info : Advanced Audio Codec

Format version : Version 4

Format profile : LC

Format settings, SBR : No

Codec ID : 40

Duration : 1h 30mn

Bit rate mode : Variable

Bit rate : 128 Kbps

Channel(s) : 2 channels

Channel positions : Front: L R

Sampling rate : 44.1 KHz

Stream size : 83.2 MiB (11%)

Encoded date : UTC 2010-06-27 05:18:09

Tagged date : UTC 2010-06-27 05:18:09















cooltext4605873352.png













vlcsnap2010062706h25m04.png

vlcsnap2010062706h23m28.png

vlcsnap2010062706h25m46.png

vlcsnap2010062706h26m37.png











cooltext460587520.png











http://www.imdb.com/title/tt0244000/











TRAILER































cooltext460588147.gif

related torrents

Torrent name

health leech seeds Size

American Outlaws 2001

0 0 700.02 MB 0
 


comments (0)

Main Menu