Other

Final Fantasy The Spirits Within 2001 720p Bluray (multisub)dts X264 Esir Dts Proper

  • Download Faster
  • Download torrent
  • Direct Download
  • Rate this torrent +  |  -
Final Fantasy The Spirits Within 2001 720p Bluray (multisub)dts X264 Esir Dts Proper

Download Anonymously! Get Protected Today And Get your 70% discount


Torrent info

Name:Final Fantasy The Spirits Within 2001 720p Bluray (multisub)dts X264 Esir Dts Proper

Infohash: 775599B657E04E53FF6C6BEBC64507AC3D9E0854

Total Size: 2.00 GB

Seeds: 0

Leechers: 0

Stream: Watch Full Movie @ Movie4u

Last Updated: 2013-02-10 08:23:21 (Update Now)

Torrent added: 2010-07-06 12:05:07






Torrent Files List


 

Announce URL:

Torrent description

scf7lx.jpg





Final Fantasy: The Spirits Within

Genre: Animation, Fantasy, Adventure, Sci-Fi, Action



Year: 2001

Country: USA, Japan

Runtime: 106 min

Director: Hironobu Sakaguchi





Cast: Ming-Na, Alec Baldwin, Ving Rhames, Steve Buscemi, Peri Gilpin, Donald Sutherland



IMDB = http://imdb.com/title/tt0173840/







Format: Blu-Ray x264 rip



Video: 4350kbps, 1280x688, 23.976



Audio: English DTS 5.1 1.5Mbps



Subtitels



Cestina,Dansk,Nederlands,English,Suomi,Deutsch,

Lituanian,Norsk,Polski,Portugues,Romana,Espanol,

Svenska.







Plot:







In the year 2065, the next great assault against an invading race of phantom-like aliens is about to be launched. Dr. Aki Ross, a brilliant young scientist, races to find the invaders' secrets, not only to save the planet, but herself as well after her body is infected by alien particles. She teams up with the prestigious Deep Eyes military squadron, led by her old friend Grey Edwards. But as Aki, her mentor Dr. Sid, and Grey work toward a peaceful end, the scheming General Hein devises a plot to eradicate the aliens in one swift, destructive blow...even if it destroys the Earth right along with them.











Codecs needed to play .mkv / x264 :



1. Haali Media Splitter



2. CoreAVC



3. AC3Filter



Screens



2hrj3iw.jpg

24uxdeo.jpg

vg517a.jpg

2r2ro0y.jpg

wste0n.jpg

2vud5qb.jpg











My mediaInfo



General

Complete name : Final.Fantasy.The.Spirits.Within.2001.720p.BluRay.DTS.x264-ESiR.PROPER.mkv

Format : Matroska

File size : 4.37 GiB

Duration : 1h 45mn

Overall bit rate : 5 914 Kbps

Encoded date : UTC 2007-08-07 21:27:48

Writing application : mkvmerge v2.0.2 ('You're My Flame') built on Feb 21 2007 23:40:55

Writing library : libebml v0.7.7 + libmatroska v0.8.1

Cover : Yes / Yes / Yes



Video

ID : 1

Format : AVC

Format/Info : Advanced Video Codec

Format profile : [email protected]

Format settings, CABAC : Yes

Format settings, ReFrames : 8 frames

Muxing mode : Container [email protected]

Codec ID : V_MPEG4/ISO/AVC

Duration : 1h 45mn

Bit rate : 4 398 Kbps

Width : 1 280 pixels

Height : 688 pixels

Display aspect ratio : 1.860

Frame rate : 23.976 fps

Color space : YUV

Chroma subsampling : 4:2:0

Bit depth : 8 bits

Scan type : Progressive

Bits/(Pixel*Frame) : 0.208

Stream size : 3.17 GiB (72%)

Writing library : x264 core 55 svn-663C

Encoding settings : cabac=1 / ref=5 / deblock=1:-3:-3 / analyse=0x3:0x133 / me=umh / subme=6 / brdo=1 / mixed_ref=1 / me_range=16 / chroma_me=1 / trellis=0 / 8x8dct=1 / cqm=2 / deadzone=21,11 / chroma_qp_offset=0 / threads=2 / nr=0 / decimate=1 / mbaff=0 / bframes=5 / b_pyramid=1 / b_adapt=1 / b_bias=0 / direct=1 / wpredb=1 / bime=1 / keyint=250 / keyint_min=25 / scenecut=40(pre) / rc=2pass / bitrate=4398 / ratetol=1.0 / rceq='blurCplx^(1-qComp)' / qcomp=0.60 / qpmin=10 / qpmax=51 / qpstep=4 / cplxblur=20.0 / qblur=0.5 / ip_ratio=1.40 / pb_ratio=1.30 / aq=1:0.7:15.0

Language : English



Audio

ID : 2

Format : DTS

Format/Info : Digital Theater Systems

Codec ID : A_DTS

Duration : 1h 45mn

Bit rate mode : Constant

Bit rate : 1 510 Kbps

Channel(s) : 6 channels

Channel positions : Front: L C R, Side: L R, LFE

Sampling rate : 48.0 KHz

Bit depth : 24 bits

Stream size : 1.12 GiB (26%)

Language : English



Text #1

ID : 3

Format : ASS

Codec ID : S_TEXT/ASS

Codec ID/Info : Advanced Sub Station Alpha

Language : Czech



Text #2

ID : 4

Format : ASS

Codec ID : S_TEXT/ASS

Codec ID/Info : Advanced Sub Station Alpha

Language : Danish



Text #3

ID : 5

Format : ASS

Codec ID : S_TEXT/ASS

Codec ID/Info : Advanced Sub Station Alpha

Language : Dutch



Text #4

ID : 6

Format : ASS

Codec ID : S_TEXT/ASS

Codec ID/Info : Advanced Sub Station Alpha

Language : English



Text #5

ID : 7

Format : ASS

Codec ID : S_TEXT/ASS

Codec ID/Info : Advanced Sub Station Alpha

Language : Finnish



Text #6

ID : 8

Format : ASS

Codec ID : S_TEXT/ASS

Codec ID/Info : Advanced Sub Station Alpha

Language : German



Text #7

ID : 9

Format : ASS

Codec ID : S_TEXT/ASS

Codec ID/Info : Advanced Sub Station Alpha

Language : Lithuanian



Text #8

ID : 10

Format : ASS

Codec ID : S_TEXT/ASS

Codec ID/Info : Advanced Sub Station Alpha

Language : Norwegian



Text #9

ID : 11

Format : ASS

Codec ID : S_TEXT/ASS

Codec ID/Info : Advanced Sub Station Alpha

Language : Polish



Text #10

ID : 12

Format : ASS

Codec ID : S_TEXT/ASS

Codec ID/Info : Advanced Sub Station Alpha

Language : Portuguese



Text #11

ID : 13

Format : ASS

Codec ID : S_TEXT/ASS

Codec ID/Info : Advanced Sub Station Alpha

Language : Romanian



Text #12

ID : 14

Format : ASS

Codec ID : S_TEXT/ASS

Codec ID/Info : Advanced Sub Station Alpha

Language : Serbian



Text #13

ID : 15

Format : ASS

Codec ID : S_TEXT/ASS

Codec ID/Info : Advanced Sub Station Alpha

Language : Spanish



Text #14

ID : 16

Format : ASS

Codec ID : S_TEXT/ASS

Codec ID/Info : Advanced Sub Station Alpha

Language : Swedish






ollba.jpg



Greets From MadwiggyNLD

Please keep seeding as long as possible thankyou





I advise to use VLC it can be found here



http://www.videolan.org/vlc/

related torrents

Torrent name

health leech seeds Size
 


comments (0)

Main Menu