Music Videos

Rihanna ft Drake - Whats My Name [KingPinMKVideos]

  • Download Faster
  • Download torrent
  • Direct Download
  • Rate this torrent +  |  -
Rihanna ft Drake - Whats My Name [KingPinMKVideos]

Download Anonymously! And Get Protected Today with 6 Months FREE VPN!


Torrent info

Name:Rihanna ft Drake - Whats My Name [KingPinMKVideos]

Infohash: 8D0FEA7715C24C77A9012627AB893278058C0FE8

Total Size: 101.88 MB

Seeds: 0

Leechers: 0

Stream: Watch Full Movie @ Movie4u

Last Updated: 2015-09-11 02:27:42 (Update Now)

Torrent added: 2010-11-22 19:35:08





Torrent Files List


Rihanna ft Drake - Whats My Name [KingPinMKVideos].mkv (Size: 101.88 MB) (Files: 5)

 Rihanna ft Drake - Whats My Name [KingPinMKVideos].mkv

101.88 MB

 Rihanna ft Drake - Whats My Name [KingPinMKVideos].txt

2.59 KB

 Rihanna ft Drake - Whats My Name [KingPinMKVideos].nfo

1.85 KB

 Torrent downloaded from Demonoid.com.txt

0.05 KB

 Torrent Downloaded from Limetorrents.com.txt

0.04 KB
 

tracker

leech seeds
 

Torrent description



Rihanna ft Drake - Whats My Name [KingPinMKVideos] preview 0

[code]General
Complete name : Rihanna ft Drake - Whats My Name [KingPinMKVideos].mkv
Format : Matroska
File size : 102 MiB
Duration : 4mn 27s
Overall bit rate : 3 198 Kbps
Writing application : HandBrake 0.9.4

Video
ID : 1
Format : AVC
Format/Info : Advanced Video Codec
Format profile : [email protected]
Format settings, CABAC : No
Format settings, ReFrames : 2 frames
Muxing mode : Container [email protected]
Codec ID : V_MPEG4/ISO/AVC
Duration : 4mn 27s
Bit rate : 2 942 Kbps
Nominal bit rate : 3 000 Kbps
Width : 526 pixels
Height : 296 pixels
Display aspect ratio : 16:9
Frame rate : 29.970 fps
Resolution : 8 bits
Colorimetry : 4:2:0
Scan type : Progressive
Bits/(Pixel*Frame) : 0.630
Stream size : 93.6 MiB (92%)
Writing library : x264 core 79

Audio
ID : 2
Format : AC-3
Format/Info : Audio Coding 3
Codec ID : A_AC3
Duration : 4mn 27s
Bit rate mode : Constant
Bit rate : 192 Kbps
Channel(s) : 2 channels
Channel positions : L R
Sampling rate : 48.0 KHz
Stream size : 6.12 MiB (6%)[/code]

related torrents

Torrent name

health leech seeds Size
 


comments (0)

Main Menu

Cheap VPN