Movies - Other

Just Go With It 2011 TS XViD - IMAGiNE

  • Download Faster
  • Download torrent
  • Direct Download
  • Rate this torrent +  |  -
Just Go With It 2011 TS XViD - IMAGiNE

Download Anonymously! Get Protected Today And Get your 70% discount


Torrent info

Name:Just Go With It 2011 TS XViD - IMAGiNE

Infohash: 16CA81A385F73E2E0844F31FA15E7164B58DBD35

Total Size: 1.32 GB

Seeds: 57

Leechers: 12

Stream: Watch Full Movie @ Movie4u

Last Updated: 2011-04-22 13:33:08 (Update Now)

Torrent added: 2011-03-04 16:35:05






Torrent Files List


Just Go With It 2011 TS XViD - IMAGiNE.avi (Size: 1.32 GB) (Files: 7)

 Just Go With It 2011 TS XViD - IMAGiNE.avi

1.31 GB

 Just Go With It 2011 TS XViD - SAMPLE.avi

14.94 MB

 Just Go With It TS XViD - IMAGiNE.nfo

4.87 KB

 NW RG.nfo

12.96 KB

 Pleas read!!!!.txt

0.13 KB

 Torrent downloaded from Demonoid.me.txt

0.04 KB

 seedbox.PNG

71.68 KB
 

Announce URL: http://tracker.ccc.de/announce

Torrent description

Just Go With It 2011 TS XViD - IMAGiNE preview 0
[code]
Just Go With It 2011 TS XViD - IMAGiNE


Ripper ...........:IMAGiNE IMDB Rating.......:6.1/10

Video Codec.......:XVID Release Date......:03/03/11

Audio Codec.......:MP3 Theatre Date......:02/11/11

Audio Bitrate.....:128 Runtime...........:1h 49mn

Subtitles.........:NIL Language..........:ENGLISH

Resolution........:720 x 320 IMDb URL.......... http://www.imdb.com/title/tt1564367/

DETAILS:

Video

ID : 0

Format : MPEG-4 Visual

Format profile : Advanced [email protected]

Format settings, BVOP : Yes

Format settings, QPel : No

Format settings, GMC : No warppoints

Format settings, Matrix : Default (MPEG)

Muxing mode : Packed bitstream

Codec ID : XVID

Codec ID/Hint : XviD

Duration : 1h 49mn

Bit rate : 1 569 Kbps

Width : 720 pixels

Height : 320 pixels

Display aspect ratio : 2.25:1

Frame rate : 25.000 fps

Color space : YUV

Chroma subsampling : 4:2:0

Bit depth : 8 bits

Scan type : Progressive

Bits/(Pixel*Frame) : 0.272

Stream size : 1.20 GiB (92%)

Writing library : XviD 61

Audio

ID : 1

Format : MPEG Audio

Format version : Version 1

Format profile : Layer 3

Codec ID : 55

Codec ID/Hint : MP3

Duration : 1h 49mn

Bit rate mode : Constant

Bit rate : 128 Kbps

Channel(s) : 2 channels

Sampling rate : 44.1 KHz

Video delay : 4ms

Stream size : 100 MiB (7%)

Alignment : Split accross interleaves

Interleave, duration : 40 ms (1.00 video frame)

Interleave, preload duration : 500 ms

Plot: On a weekend trip to Hawaii, a plastic surgeon convinces his loyal assistant to pose as his soon-to-be-divorced wife in order to cover up a careless lie he told to his much-younger girlfriend.

SOURCES

VIDEO: TaRiQ786...Thanks

AUDIO: thanks matey

NOTES:

IMAGiNE bringing you another release..........

Here we are with a nice TS of Just Go With It for you all to enjoy. First of all thanks to our

mate TaRiQ786 for the source files... With this one we needed to do some cropping

and rotating, we also made a script up to adjust the whate balance, gamma,

brightness, colors and ran a denoise and a sharpening filter. Turned out nice.Now

the audio we just sync our very nice Line to our encode...

Anyway enjoy folks ....
[/code]
Screens:
Just Go With It 2011 TS XViD - IMAGiNE preview 1
Just Go With It 2011 TS XViD - IMAGiNE preview 2

related torrents

Torrent name

health leech seeds Size
 


comments (0)

Main Menu