Movies - Other

{ } -Hanna 2011 CAM V2 XViD - IMAGiNE

  • Download Faster
  • Download torrent
  • Direct Download
  • Rate this torrent +  |  -
{ } -Hanna 2011 CAM V2 XViD - IMAGiNE

Download Anonymously! Get Protected Today And Get your 70% discount


Torrent info

Name:{ } -Hanna 2011 CAM V2 XViD - IMAGiNE

Infohash: C21A8E298A4C52CF96BD65D83771C4B401AD3C50

Total Size: 1.38 GB

Seeds: 2

Leechers: 2

Stream: Watch Full Movie @ Movie4u

Last Updated: 0000-00-00 00:00:00 (Update Now)

Torrent added: 2011-05-12 09:35:31






Torrent Files List


Hanna 2011 CAM V2 XViD - IMAGiNE SAMPLE.avi (Size: 1.38 GB) (Files: 105)

 Hanna 2011 CAM V2 XViD - IMAGiNE SAMPLE.avi

12.91 MB

 Hanna 2011 CAM V2 XViD - IMAGiNE.NFO

5.07 KB

 hv2-img.part001.rar

14.31 MB

 hv2-img.part001.sfv

0.17 KB

 hv2-img.part002.rar

14.31 MB

 hv2-img.part003.rar

14.31 MB

 hv2-img.part004.rar

14.31 MB

 hv2-img.part005.rar

14.31 MB

 hv2-img.part006.rar

14.31 MB

 hv2-img.part007.rar

14.31 MB

 hv2-img.part008.rar

14.31 MB

 hv2-img.part009.rar

14.31 MB

 hv2-img.part010.rar

14.31 MB

 hv2-img.part011.rar

14.31 MB

 hv2-img.part012.rar

14.31 MB

 hv2-img.part013.rar

14.31 MB

 hv2-img.part014.rar

14.31 MB

 hv2-img.part015.rar

14.31 MB

 hv2-img.part016.rar

14.31 MB

 hv2-img.part017.rar

14.31 MB

 hv2-img.part018.rar

14.31 MB

 hv2-img.part019.rar

14.31 MB

 hv2-img.part020.rar

14.31 MB

 hv2-img.part021.rar

14.31 MB

 hv2-img.part022.rar

14.31 MB

 hv2-img.part023.rar

14.31 MB

 hv2-img.part024.rar

14.31 MB

 hv2-img.part025.rar

14.31 MB

 hv2-img.part026.rar

14.31 MB

 hv2-img.part027.rar

14.31 MB

 hv2-img.part028.rar

14.31 MB

 hv2-img.part029.rar

14.31 MB

 hv2-img.part030.rar

14.31 MB

 hv2-img.part031.rar

14.31 MB

 hv2-img.part032.rar

14.31 MB

 hv2-img.part033.rar

14.31 MB

 hv2-img.part034.rar

14.31 MB

 hv2-img.part035.rar

14.31 MB

 hv2-img.part036.rar

14.31 MB

 hv2-img.part037.rar

14.31 MB

 hv2-img.part038.rar

14.31 MB

 hv2-img.part039.rar

14.31 MB

 hv2-img.part040.rar

14.31 MB

 hv2-img.part041.rar

14.31 MB

 hv2-img.part042.rar

14.31 MB

 hv2-img.part043.rar

14.31 MB

 hv2-img.part044.rar

14.31 MB

 hv2-img.part045.rar

14.31 MB

 hv2-img.part046.rar

14.31 MB

 hv2-img.part047.rar

14.31 MB

 hv2-img.part048.rar

14.31 MB

 hv2-img.part049.rar

14.31 MB

 hv2-img.part050.rar

14.31 MB

 hv2-img.part051.rar

14.31 MB

 hv2-img.part052.rar

14.31 MB

 hv2-img.part053.rar

14.31 MB

 hv2-img.part054.rar

14.31 MB

 hv2-img.part055.rar

14.31 MB

 hv2-img.part056.rar

14.31 MB

 hv2-img.part057.rar

14.31 MB

 hv2-img.part058.rar

14.31 MB

 hv2-img.part059.rar

14.31 MB

 hv2-img.part060.rar

14.31 MB

 hv2-img.part061.rar

14.31 MB

 hv2-img.part062.rar

14.31 MB

 hv2-img.part063.rar

14.31 MB

 hv2-img.part064.rar

14.31 MB

 hv2-img.part065.rar

14.31 MB

 hv2-img.part066.rar

14.31 MB

 hv2-img.part067.rar

14.31 MB

 hv2-img.part068.rar

14.31 MB

 hv2-img.part069.rar

14.31 MB

 hv2-img.part070.rar

14.31 MB

 hv2-img.part071.rar

14.31 MB

 hv2-img.part072.rar

14.31 MB

 hv2-img.part073.rar

14.31 MB

 hv2-img.part074.rar

14.31 MB

 hv2-img.part075.rar

14.31 MB

 hv2-img.part076.rar

14.31 MB

 hv2-img.part077.rar

14.31 MB

 hv2-img.part078.rar

14.31 MB

 hv2-img.part079.rar

14.31 MB

 hv2-img.part080.rar

14.31 MB

 hv2-img.part081.rar

14.31 MB

 hv2-img.part082.rar

14.31 MB

 hv2-img.part083.rar

14.31 MB

 hv2-img.part084.rar

14.31 MB

 hv2-img.part085.rar

14.31 MB

 hv2-img.part086.rar

14.31 MB

 hv2-img.part087.rar

14.31 MB

 hv2-img.part088.rar

14.31 MB

 hv2-img.part089.rar

14.31 MB

 hv2-img.part090.rar

14.31 MB

 hv2-img.part091.rar

14.31 MB

 hv2-img.part092.rar

14.31 MB

 hv2-img.part093.rar

14.31 MB

 hv2-img.part094.rar

14.31 MB

 hv2-img.part095.rar

14.31 MB

 hv2-img.part096.rar

14.31 MB

 hv2-img.part097.rar

14.31 MB

 hv2-img.part098.rar

14.31 MB

 hv2-img.part099.rar

2.11 MB

 Read this before playing this Movie .txt

0.13 KB

 ST.txt

0.05 KB

 torrent downloaded from www.scenetime.com.txt

0.13 KB
 

Announce URL: http://tracker.publicbt.com:80

Torrent description

,
Brought to you by http://www.scenetime.com/signup.php

Hottest scene tracker on the net !!!

No fake torrents from scenebalance
shame on those who comment fake before downloading my torrents

seed back for speed






...................................NFO:................................................. *********** **** **** *** ******** *********** **** *** **********
*+* +*+*+* *+*+*+ *+* *+* *+* *+* *+* *+*+* *+* *+*
+*+ +*+ +*+*+ +*+ +*+ +*+ +*+ +*+ *+*+*+ +*+ +*+
+$+ +$+ +*+ +$+ +$++*++$++* *$* +$+ +$+ +*+ +$+ +$++*++$
+$+ +$+ +$+ +$+ +$+ +$+ +$+$ +$+ +$+ +$+$+$ +$+
$+$ $+$ $+$ $+$ $+$ $+$ $+$ $+$ $+$ $+$+$ $+$
$$$$$$$$$$$ $$$ $$$ $$$ $$$ $$$$$$$$ $$$$$$$$$$$ $$$ $$$$ $$$$$$$$$$




Another Fine Release Brought to you from - IMAGiNE


********************************************************************************************************************
Hanna 2011 CAM V2 XViD - IMAGiNE
********************************************************************************************************************

Ripper ...........: IMAGiNE IMDB Rating.......: 7.8/10
Video Codec.......: XVID Release Date......: 11/05/11
Audio Codec.......: MP3 Theatre Date......: 08/04/11
Audio Bitrate.....: 128 Runtime.......: 1h 43mn
Subtitles.........: NIL Language..........: ENGLISH
Resolution......: 720 x 304 IMDb URL..........: http://www.imdb.com/title/tt0993842/


[color=yellow]DETAILS:[/color]

Video
ID : 0
Format : MPEG-4 Visual
Format profile : Advanced [email protected]
Format settings, BVOP : 2
Format settings, QPel : No
Format settings, GMC : No warppoints
Format settings, Matrix : Default (MPEG)
Muxing mode : Packed bitstream
Codec ID : XVID
Codec ID/Hint : XviD
Duration : 1h 43mn
Bit rate : 1 759 Kbps
Width : 720 pixels
Height : 304 pixels
Display aspect ratio : 2.35:1
Frame rate : 25.000 fps
Color space : YUV
Chroma subsampling : 4:2:0
Bit depth : 8 bits
Scan type : Progressive
Compression mode : Lossy
Bits/(Pixel*Frame) : 0.321
Stream size : 1.27 GiB (93%)
Writing library : XviD 61

Audio
ID : 1
Format : MPEG Audio
Format version : Version 1
Format profile : Layer 3
Mode : Joint stereo
Mode extension : MS Stereo
Codec ID : 55
Codec ID/Hint : MP3
Duration : 1h 43mn
Bit rate mode : Constant
Bit rate : 128 Kbps
Channel(s) : 2 channels
Sampling rate : 44.1 KHz
Compression mode : Lossy
Stream size : 94.7 MiB (7%)
Alignment : Split accross interleaves
Interleave, duration : 40 ms (1.00 video frame)
Writing library : LAME3.98r

[color=yellow]SOURCES:[/color]

VIDEO: KiNOPARK ...... Thanx Mate :D
AUDIO: LKRG .......... Thanx Matey :P

[color=yellow]NOTES:[/color]

IMAGiNE bringing you another release..........
Alright here we go with our V2 cam of Hanna.....
The video was much improved over V1, thanx to KiNOPARK
for the source files :P
So, we made a script to crop, resize and sharpen....
Due to movement, several cuts were needed,
then cropped rotated and resized and appended together.....
Next we ran a few filters to level out the colours.....
The audio is same from V1, synced and muxed to our encode.....
English subs hardcoded in yellow when needed ;)
And as always.....
Enjoy Folks!
[color=yellow]SCREENS:[/color]


[color=yellow]GREETS:[/color]

FLAWL3SS,ViSiON,FUSiON,Rx,SecretMyth,BirdFlu,ELEKTRI4KA,SERENiTY and Autotron
And to all the other p2p grps past and present


[COLOR=RED]Looking for these,syncers,cammers,silver supplier,Audio.....Have anything to offer????......
Contact us [email protected][/COLOR]

related torrents

Torrent name

health leech seeds Size
 


comments (0)

Main Menu