Movies - Other

Limitless 2011 R5 LiNE x264 Feel-Free

  • Download Faster
  • Download torrent
  • Direct Download
  • Rate this torrent +  |  -
Limitless 2011 R5 LiNE x264 Feel-Free

Download Anonymously! Get Protected Today And Get your 70% discount


Torrent info

Name:Limitless 2011 R5 LiNE x264 Feel-Free

Infohash: 5C0DECD0E8C2CDD528DFDB352B0C7D22207C96F1

Total Size: 956.56 MB

Seeds: 61

Leechers: 441

Stream: Watch Full Movie @ Movie4u

Last Updated: 0000-00-00 00:00:00 (Update Now)

Torrent added: 2011-05-17 20:38:42






Torrent Files List


Limitless 2011 R5 LiNE x264 Feel-Free.mp4 (Size: 956.56 MB) (Files: 11)

 Limitless 2011 R5 LiNE x264 Feel-Free.mp4

954.34 MB

 Limitless 2011 R5 LiNE x264 Feel-Free.nfo

2.69 KB

 Limitless 2011 R5 LiNE x264 Feel-Free.srt

82.47 KB

 pjfjhij6ggjhqua6aezi.png

615.45 KB

 Torrent downloaded from Extratorrent.com.txt

0.12 KB

 vlcsnap-00002.png

225.18 KB

 vlcsnap-00003.png

260.41 KB

 vlcsnap-00004.png

268.56 KB

 vlcsnap-00005.png

308.06 KB

 vlcsnap-00006.png

201.33 KB

 vlcsnap-00007.png

304.41 KB
 

Announce URL: http://nemesis.1337x.org/announce

Torrent description

Limitless 2011 R5 LiNE x264 Feel-Free

Genre:Thriller
Language:English
IMDb:http://www.imdb.com/title/tt1219289/
Source:DVD.R5.KINOPARK/IMAGINE Thx.
Subtitles:Romana

Format : MPEG-4
Format profile : Base Media
Codec ID : isom
File size : 954 MiB
Duration : 1h 37mn
Overall bit rate : 1 363 Kbps

Video
ID : 1
Format : AVC
Format/Info : Advanced Video Codec
Format profile : [email protected]
Format settings, CABAC : Yes
Format settings, ReFrames : 3 frames
Codec ID : avc1
Codec ID/Info : Advanced Video Coding
Duration : 1h 37mn
Bit rate mode : Variable
Bit rate : 1 136 Kbps
Maximum bit rate : 6 266 Kbps
Width : 720 pixels
Height : 304 pixels
Display aspect ratio : 2.35:1
Frame rate mode : Constant
Frame rate : 25.000 fps
Color space : YUV
Chroma subsampling : 4:2:0
Bit depth : 8 bits
Scan type : Progressive
Bits/(Pixel*Frame) : 0.208
Stream size : 795 MiB (83%)
Writing library : x264

Audio
ID : 2
Format : AAC
Format/Info : Advanced Audio Codec
Format version : Version 4
Format profile : LC
Format settings, SBR : No
Codec ID : 40
Duration : 1h 37mn
Bit rate mode : Variable
Bit rate : 224 Kbps
Maximum bit rate : 284 Kbps
Channel(s) : 2 channels
Channel positions : Front: L R
Sampling rate : 44.1 KHz
Stream size : 157 MiB (16%)


Plot:

A writer discovers a top-secret drug which bestows him
with super human abilities.


Screens:


Limitless 2011 R5 LiNE x264 Feel-Free preview 0

Limitless 2011 R5 LiNE x264 Feel-Free preview 1

Limitless 2011 R5 LiNE x264 Feel-Free preview 2


ENJOY!

related torrents

Torrent name

health leech seeds Size
 


comments (0)

Main Menu