Movies - Other

EXCALIBUR

  • Download Faster
  • Download torrent
  • Direct Download
  • Rate this torrent +  |  -
EXCALIBUR

Download Anonymously! Get Protected Today And Get your 70% discount


Torrent info

Name:EXCALIBUR

Infohash: 0E4993ED478D5A23088955F86D6347E818E54961

Total Size: 3.99 GB

Seeds: 9

Leechers: 3

Stream: Watch Full Movie @ Movie4u

Last Updated: 0000-00-00 00:00:00 (Update Now)

Torrent added: 2011-06-21 17:35:26

Alternatives:EXCALIBUR Torrents






Torrent Files List


Excalibur (1981) 1080p.m2ts (Size: 3.99 GB) (Files: 2)

 Excalibur (1981) 1080p.m2ts

3.99 GB

 Torrent downloaded from Demonoid.me.txt

0.04 KB
 

Announce URL: http://inferno.demonoid.me:3417/announce

Torrent description

The myth of King Arthur brought once again to the screen. Uthur Pendragon is given the mystical sword Excalibur by the wizard Merlyn.
At his death Uthur buries the sword into a stone, and the next man that can pull it out will be King of England. Years later Arthur,
Uthurs bastard son draws Excalibur and becomes king. Guided by Merlyn, Arthur marries Guenivere and gathers the Knights of the Round Table.
Arthurs evil half-sister Morgana sires a son with him, who may prove his downfall.



A spirited accounting of one of the most obscure periods of the worlds history. This reprisal is magical in its execution and gives its audience something to watch


Format : BDAV
Format/Info : Blu-ray Video
File size : 3.99 GiB
Duration : 2h 20mn
Overall bit rate : 4 059 Kbps
Maximum Overall bit rate : 35.5 Mbps

Video
ID : 4113 (0x1011)
Menu ID : 1 (0x1)
Format : AVC
Format/Info : Advanced Video Codec
Format profile : [email protected]
Format settings, CABAC : Yes
Format settings, ReFrames : 3 frames
Codec ID : 27
Duration : 2h 20mn
Bit rate mode : Variable
Bit rate : 3 150 Kbps
Maximum bit rate : 25.0 Mbps
Width : 1 920 pixels
Height : 1 080 pixels
Display aspect ratio : 16:9
Frame rate : 23.976 fps
Color space : YUV
Chroma subsampling : 4:2:0
Bit depth : 8 bits
Scan type : Progressive
Bits/(Pixel*Frame) : 0.063
Stream size : 3.20 GiB (80%)
Writing library : x264 core 112 r1867 22bfd31
Encoding settings : cabac=1 / ref=3 / deblock=1:0:0 / analyse=0x3:0x133 / me=umh / subme=7 / psy=1 / psy_rd=1.00:0.00 / mixed_ref=1 / me_range=16 / chroma_me=1 / trellis=1 / 8x8dct=1 / cqm=0 / deadzone=21,11 / fast_pskip=1 / chroma_qp_offset=-2 / threads=4 / sliced_threads=0 / nr=0 / decimate=1 / interlaced=0 / constrained_intra=0 / bframes=3 / b_pyramid=0 / b_adapt=1 / b_bias=0 / direct=1 / weightb=1 / open_gop=0 / weightp=2 / keyint=240 / keyint_min=24 / scenecut=40 / intra_refresh=0 / rc_lookahead=40 / rc=2pass / mbtree=1 / bitrate=3150 / ratetol=1.0 / qcomp=0.60 / qpmin=0 / qpmax=51 / qpstep=4 / cplxblur=20.0 / qblur=0.5 / vbv_maxrate=25000 / vbv_bufsize=25000 / nal_hrd=vbr / ip_ratio=1.40 / aq=1:1.00

Audio
ID : 4352 (0x1100)
Menu ID : 1 (0x1)
Format : AC-3
Format/Info : Audio Coding 3
Mode extension : CM (complete main)
Codec ID : 129
Duration : 2h 20mn
Bit rate mode : Constant
Bit rate : 640 Kbps
Channel(s) : 6 channels
Channel positions : Front: L C R, Side: L R, LFE
Sampling rate : 48.0 KHz
Bit depth : 16 bits
Compression mode : Lossy
Stream size : 644 MiB (16%)
Language : English

related torrents

Torrent name

health leech seeds Size

Excalibur (1981)

1 1 1.79 GB 0
 


comments (0)

Main Menu