Movies - Other

The Searchers 1956 1080p BluRay x264-HYDRO

  • Download Faster
  • Download torrent
  • Direct Download
  • Rate this torrent +  |  -
The Searchers 1956 1080p BluRay x264-HYDRO

Download Anonymously! Get Protected Today And Get your 70% discount


Torrent info

Name:The Searchers 1956 1080p BluRay x264-HYDRO

Infohash: A32FDAEFC311E5286613FC9EDE2565A8283ADF9A

Total Size: 19.45 GB

Seeds: 0

Leechers: 0

Stream: Watch Full Movie @ Movie4u

Last Updated: 2019-11-06 13:53:23 (Update Now)

Torrent added: 2011-07-20 10:35:22






Torrent Files List


 

Announce URL:

Torrent description

If John Ford is the greatest Western director, The Searchers is arguably his greatest film, at once a grand outdoor spectacle like such Ford classics as She Wore a Yellow Ribbon (1949) and Rio Grande (1950) and a film about one mans troubling moral codes, a big-screen adventure of the 1950s that anticipated the complex themes and characters that would dominate the 1970s. John Wayne plays Ethan Edwards, a former Confederate soldier who returns to his brother Aarons frontier cabin three years after the end of the Civil War. Ethan still has his rebel uniform and weapons, a large stash of Yankee gold, and no explanations as to where hes been since Lees surrender. A loner not comfortable in the bosom of his family, Ethan also harbors a bitter hatred of Indians (though he knows their lore and language well) and trusts no one but himself. Ethan and Martin Pawley (Jeffrey Hunter), Aarons adopted son, join a makeshift band of Texas Rangers fending off an assault by renegade Comanches. Before they can run off the Indians, several homes are attacked, and Ethan returns to discover his brother and sister-in-law dead and their two daughters kidnapped. While they soon learn that one of the girls is dead, the other, Debbie, is still alive, and with obsessive determination, Ethan and Martin spend the next five years in a relentless search for Debbie and for Scar (Henry Brandon), the fearsome Comanche chief who abducted her. But while Martin wants to save his sister and bring her home, Ethan seems primarily motivated by his hatred of the Comanches; its hard to say if he wants to rescue Debbie or murder the girl who has lived with Indians too long to be considered white. John Wayne gives perhaps his finest performance in a role that predated screen antiheroes of the 1970s; by the films conclusion, his single-minded obsession seems less like heroism and more like madness. Wayne bravely refuses to soft-pedal Ethans ugly side, and the result is a remarkable portrait of a man incapable of answering to anyone but himself, who ultimately has more in common with his despised Indians than with his more civilized brethren. Natalie Wood is striking in her brief role as the 16-year-old Debbie, lost between two worlds, and Winton C. Hochs Technicolor photography captures Monument Valleys savage beauty with subtle grace. The Searchers paved the way for such revisionist Westerns as The Wild Bunch (1969) and McCabe Mrs. Miller (1971), and its influence on movies from Taxi Driver (1976) to Close Encounters of the Third Kind (1977) and Star Wars (1977) testifies to its lasting importance.

Directed By: John Ford
Written By: Frank S. Nugent
Stars: John Wayne, Jeffrey Hunter and Vera Miles
http://www.imdb.com/title/tt0049730/

Format : Matroska
File size : 19.5 GiB
Duration : 1h 58mn
Overall bit rate : 23.4 Mbps
Encoded date : UTC 2011-07-13 08:29:38
Writing application : DVDFab
Writing library : libebml v0.7.8 + libmatroska v0.8.1

Video
ID : 1
Format : VC-1
Format profile : [email protected]
Codec ID : WVC1
Codec ID/Hint : Microsoft
Duration : 1h 58mn
Bit rate : 22.8 Mbps
Width : 1 920 pixels
Height : 1 080 pixels
Display aspect ratio : 16:9
Frame rate : 23.976 fps
Chroma subsampling : 4:2:0
Bit depth : 8 bits
Scan type : Progressive
Compression mode : Lossy
Bits/(Pixel*Frame) : 0.458
Stream size : 18.9 GiB (97%)

Audio
ID : 2
Format : AC-3
Format/Info : Audio Coding 3
Mode extension : CM (complete main)
Codec ID : A_AC3
Duration : 1h 58mn
Bit rate mode : Constant
Bit rate : 192 Kbps
Channel(s) : 1 channel
Channel positions : Front: C
Sampling rate : 48.0 KHz
Bit depth : 16 bits
Compression mode : Lossy
Stream size : 163 MiB (1%)
Language : English

related torrents

Torrent name

health leech seeds Size

The Searchers (1956)

1 0 899.85 MB 0
 


comments (0)

Main Menu