Movies - Other

Final Destination - 5 - 400MB - Cam - W-BB

  • Download Faster
  • Download torrent
  • Direct Download
  • Rate this torrent +  |  -
Final Destination - 5 - 400MB - Cam - W-BB

Download Anonymously! Get Protected Today And Get your 70% discount


Torrent info

Name:Final Destination - 5 - 400MB - Cam - W-BB

Infohash: 123994FECEF8240408C0D7ECB122428F33515626

Total Size: 433.24 MB

Seeds: 46

Leechers: 17

Stream: Watch Full Movie @ Movie4u

Last Updated: 2011-11-20 10:43:16 (Update Now)

Torrent added: 2011-08-15 16:35:42






Torrent Files List


 

Announce URL: http://inferno.demonoid.me:3400/announce

Torrent description


[code]
IMDB:
http://www.imdb.com/title/tt1622979/
Trailer:
Genre:
Horror | Thriller
Rating:Ratings:
6.4/10 from 683 users Metascore: 51/100
Plot:
Survivors of a suspension-bridge collapse learn theres no way you can cheat Death.


Format : MPEG-4
Format profile : Base Media / Version 2
Codec ID : mp42
File size : 402 MiB
Duration : 1h 27mn
Overall bit rate : 645 Kbps

Video

ID : 1
Format : AVC
Format/Info : Advanced Video Codec
Format profile : [email protected]
Format settings, CABAC : Yes
Format settings, ReFrames : 4 frames
Codec ID : avc1
Codec ID/Info : Advanced Video Coding
Duration : 1h 27mn
Bit rate mode : Variable
Bit rate : 526 Kbps
Width : 624 pixels
Height : 314 pixels
Display aspect ratio : 1.987
Frame rate mode : Constant
Frame rate : 29.970 fps
Color space : YUV
Chroma subsampling : 4:2:0
Bit depth : 8 bits
Scan type : Progressive
Bits/(Pixel*Frame) : 0.090
Stream size : 329 MiB (82%)
Writing library : x264 core 112


Audio

ID : 2
Format : AAC
Format/Info : Advanced Audio Codec
Format profile : LC
Codec ID : 40
Duration : 1h 27mn
Bit rate mode : Variable
Bit rate : 112 Kbps
Maximum bit rate : 182 Kbps
Channel(s) : 2 channels
Channel positions : Front: L R
Sampling rate : 44.1 KHz
Compression mode : Lossy
Stream size : 69.7 MiB (17%)
[/code]
Screens:
Final Destination - 5 - 400MB - Cam - W-BB preview 1
Final Destination - 5 - 400MB - Cam - W-BB preview 2
Final Destination - 5 - 400MB - Cam - W-BB preview 3
Final Destination - 5 - 400MB - Cam - W-BB preview 4
Final Destination - 5 - 400MB - Cam - W-BB preview 5
Final Destination - 5 - 400MB - Cam - W-BB preview 0

related torrents

Torrent name

health leech seeds Size
 


comments (0)

Main Menu