Movies - Other

All Quiet On The Western Front 1930 720p BluRay X264-AMIABLE [PublicHD]

  • Download Faster
  • Download torrent
  • Direct Download
  • Rate this torrent +  |  -
All Quiet On The Western Front 1930 720p BluRay X264-AMIABLE [PublicHD]

Download Anonymously! Get Protected Today And Get your 70% discount


Torrent info

Name:All Quiet On The Western Front 1930 720p BluRay X264-AMIABLE [PublicHD]

Infohash: E542361E40FDE59708004C64519951EDFB30E076

Total Size: 5.48 GB

Seeds: 3

Leechers: 2

Stream: Watch Full Movie @ Movie4u

Last Updated: 0000-00-00 00:00:00 (Update Now)

Torrent added: 2012-04-15 16:35:01






Torrent Files List


 

Announce URL: http://tracker.thepiratebay.org/announce

Torrent description

Sons.Of.Perdition.2010.DOCU.DVDRip.XviD-SPRiNTER

Date: 2011.12

http://www.imdb.com/title/tt1296893/

Genre: Documentary
Subtitles: None

Release notes

Details

Format : AVI
Format/Info : Audio Video Interleave
File size : 701 MiB
Duration : 1h 26mn
Overall bit rate mode : Variable
Overall bit rate : 1 134 Kbps
Writing application : VirtualDubMod 1.5.10.2 (build 2540/release)
Writing library : VirtualDubMod build 2540/release

Video
ID : 0
Format : MPEG-4 Visual
Format profile : Advanced [email protected]
Format settings, BVOP : 2
Format settings, QPel : No
Format settings, GMC : No warppoints
Format settings, Matrix : Default (H.263)
Codec ID : XVID
Codec ID/Hint : XviD
Duration : 1h 26mn
Bit rate : 1 050 Kbps
Width : 576 pixels
Height : 320 pixels
Display aspect ratio : 16:9
Frame rate : 23.976 fps
Color space : YUV
Chroma subsampling : 4:2:0
Bit depth : 8 bits
Scan type : Progressive
Compression mode : Lossy
Bits/(Pixel*Frame) : 0.238
Stream size : 649 MiB (93%)
Writing library : XviD 61

Audio
ID : 1
Format : MPEG Audio
Format version : Version 1
Format profile : Layer 3
Codec ID : 55
Codec ID/Hint : MP3
Duration : 1h 26mn
Bit rate mode : Variable
Bit rate : 71.2 Kbps
Minimum bit rate : 40.0 Kbps
Channel(s) : 1 channel
Sampling rate : 48.0 KHz
Compression mode : Lossy
Stream size : 44.0 MiB (6%)
Alignment : Aligned on interleaves
Interleave, duration : 24 ms (0.58 video frame)
Interleave, preload duration : 539 ms
Writing library : LAME3.95
Encoding settings : -m m -V 5 -q 3 -lowpass 17 --vbr-old -b 40

related torrents

Torrent name

health leech seeds Size
 


comments (0)

Main Menu