Movies - Other

Wiz Khalifa - Cabin Fever Official} 2012 DVD COV by_shun_lim1

  • Download Faster
  • Download torrent
  • Direct Download
  • Rate this torrent +  |  -
Wiz Khalifa - Cabin Fever Official} 2012 DVD COV by_shun_lim1

Download Anonymously! Get Protected Today And Get your 70% discount


Torrent info

Name:Wiz Khalifa - Cabin Fever Official} 2012 DVD COV by_shun_lim1

Infohash: B5DC4380BD0D67DB195BA82CBA32F1A09F250E3C

Total Size: 656.86 MB

Seeds: 0

Leechers: 0

Stream: Watch Full Movie @ Movie4u

Last Updated: 2017-08-04 08:21:11 (Update Now)

Torrent added: 2012-06-14 10:35:14



Cheap VPN


Torrent Files List


 

Announce URL:

Torrent description

Plot:
A team of explorers discover a clue to the origins of mankind on Earth, leading them on a journey to the darkest corners of the universe. There, they must fight a terrifying battle to save the future of the human race.

Format : AVI
Format/Info : Audio Video Interleave
File size : 1.40 GiB
Duration : 1h 50mn
Overall bit rate : 1 824 Kbps
Writing application : VirtualDubMod 1.5.10.2 (build 2540/release)
Writing library : VirtualDubMod build 2540/release

Video
ID : 0
Format : MPEG-4 Visual
Format profile : Advanced [email protected]
Format settings, BVOP : 2
Format settings, QPel : No
Format settings, GMC : No warppoints
Format settings, Matrix : Default (H.263)
Muxing mode : Packed bitstream
Codec ID : XVID
Codec ID/Hint : XviD
Duration : 1h 50mn
Bit rate : 1 686 Kbps
Width : 720 pixels
Height : 304 pixels
Display aspect ratio : 2.35:1
Frame rate : 25.000 fps
Color space : YUV
Chroma subsampling : 4:2:0
Bit depth : 8 bits
Scan type : Progressive
Compression mode : Lossy
Bits/(Pixel*Frame) : 0.308
Stream size : 1.30 GiB (92%)
Writing library : XviD 64

Audio
ID : 1
Format : MPEG Audio
Format version : Version 1
Format profile : Layer 3
Codec ID : 55
Codec ID/Hint : MP3
Duration : 1h 49mn
Bit rate mode : Constant
Bit rate : 128 Kbps
Channel(s) : 2 channels
Sampling rate : 44.1 KHz
Compression mode : Lossy
Stream size : 101 MiB (7%)
Alignment : Split accross interleaves
Interleave, duration : 40 ms (1.00 video frame)
Interleave, preload duration : 500 ms


Subs: Arabic subs at start

SCREENS:
Wiz Khalifa - Cabin Fever Official} 2012 DVD COV by_shun_lim1 preview 0
Wiz Khalifa - Cabin Fever Official} 2012 DVD COV by_shun_lim1 preview 1
Wiz Khalifa - Cabin Fever Official} 2012 DVD COV by_shun_lim1 preview 2
Wiz Khalifa - Cabin Fever Official} 2012 DVD COV by_shun_lim1 preview 3
Wiz Khalifa - Cabin Fever Official} 2012 DVD COV by_shun_lim1 preview 4

related torrents

Torrent name

health leech seeds Size
 


comments (0)

Main Menu

Cheap VPN