Movies - Other

Homens de Preto 3 BRRip XViD Dublado-Darth

  • Download Faster
  • Download torrent
  • Direct Download
  • Rate this torrent +  |  -
Homens de Preto 3 BRRip XViD Dublado-Darth

Download Anonymously! And Get Protected Today with 6 Months FREE VPN!


Torrent info

Name:Homens de Preto 3 BRRip XViD Dublado-Darth

Infohash: 789001E1A46F9609B05939F712DCD77BE4B1F4FA

Total Size: 701.12 MB

Seeds: 0

Leechers: 0

Stream: Watch Full Movie @ Movie4u

Last Updated: 2012-09-12 17:35:54 (Update Now)

Torrent added: 2012-09-12 17:35:54



Cheap VPN For Torrents

Torrent Files List


 

Announce URL: http://tracker.thepiratebay.org/announce

Torrent description

Geral
Complete name : Homens de Preto 3 BRRip XViD Dublado-DarthHomens de Preto 3 BRRip XViD Dublado-Darth.avi
Format : AVI
Format/Info : Audio Video Interleave
File size : 701 MiB
Duration : 1h 45mn
Overall bit rate : 926 Kbps
Writing library : VirtualDub build 32842/release

Vídeo
ID : 0
Format : MPEG-4 Visual
Format profile : Advanced [email protected]
Format settings, BVOP : 2
Format settings, QPel : Não
Format settings, GMC : Sem warppoints
Format settings, Matrix : Default (H.263)
Muxing mode : Packed bitstream
Codec ID : XVID
Codec ID/Hint : XviD
Duration : 1h 45mn
Bit rate : 789 Kbps
Width : 640 pixels
Height : 352 pixels
Display aspect ratio : 16:9
Frame rate : 23.976 fps
Color space : YUV
Chroma subsampling : 4:2:0
Bit depth : 8 bits
Scan type : Progressivo
Bits/(Pixel*Frame) : 0.146
Stream size : 597 MiB (85%)
Writing library : XviD 1.0.1 (UTC 2004-06-05)

Áudio
ID : 1
Format : MPEG Audio
Format version : Version 1
Format profile : Layer 3
Mode : Joint stereo
Mode extension : MS Stereo
Codec ID : 55
Codec ID/Hint : MP3
Duration : 1h 45mn
Bit rate mode : Constante
Bit rate : 128 Kbps
Channel(s) : 2 canais
Sampling rate : 44.1 KHz
Stream size : 96.7 MiB (14%)
Alignment : Dividir entre as intercalações
Interleave, duration : 42 ms (1.00 quadro de vídeo)
Interleave, preload duration : 501 ms
Idioma: Português-BR

related torrents

Torrent name

health leech seeds Size
 


comments (0)

Main Menu

Cheap VPN