Movies

The Bourne Legacy (HD 1080p) m4v

  • Download Faster
  • Download torrent
  • Direct Download
  • Rate this torrent +  |  -
The Bourne Legacy (HD 1080p) m4v

Download your torrents safely! And Anonymously!


Torrent info

Name:The Bourne Legacy (HD 1080p) m4v

Infohash: 686E54AA03A97E31BAEC982D1DDAEBCC611C2449

Total Size: 17.71 GB

Seeds: 0

Leechers: 0

Stream: Watch Full Movie @ Movie4u

Last Updated: 0000-00-00 00:00:00 (Update Now)

Torrent added: 2013-02-11 22:21:00



Cheap VPN For Torrents

Torrent Files List


The Bourne Legacy (HD 1080p).m4v (Size: 17.71 GB) (Files: 1)

 The Bourne Legacy (HD 1080p).m4v

17.71 GB
 

Announce URL:

Torrent description

General Complete name : The Bourne Legacy (HD 1080p).m4v Format : MPEG-4 Format profile : Base Media / Version 2 Codec ID : mp42 File size : 17.7 GiB Duration : 2h 15mn Overall bit rate mode : Variable Overall bit rate : 18.8 Mbps Movie name : The Bourne Legacy Performer : Jeremy Renner, Rachel Weisz, Edward Norton, Joan Allen, Donna Murphy, Albert Finney, Oscar Isaac, Scott Glenn, Corey Stoll, David Strathairn, Stacy Keach, Michael Papajohn, Dennis Boutsikaris, Sheena Colette, Louis Ozawa Changchien, Michael Chernus, Corey Johnson, Jennifer Kim, Elizabeth Marvel, Shane Jacobson, Page Leong, Robert Christopher Riley, Zeljko Ivanek Genre : Action, Thriller Recorded date : 2012-08-10 Encoded date : UTC 2012-12-28 03:38:34 Tagged date : UTC 2012-12-29 21:46:06 Writing application : HandBrake 5106svn 2012122501 Cover : Yes desc : A story centered on new CIA operative, Aaron Cross as he experiences life-or-death stakes that have been triggered by the previous events of Jason Bourne. Video #1 ID : 1 Format : AVC Format/Info : Advanced Video Codec Format profile : [email protected] Format settings, CABAC : Yes Format settings, ReFrames : 4 frames Codec ID : avc1 Codec ID/Info : Advanced Video Coding Duration : 2h 15mn Bit rate mode : Variable Bit rate : 17.9 Mbps Width : 1 920 pixels Height : 800 pixels Display aspect ratio : 2.40:1 Frame rate mode : Variable Frame rate : 23.976 fps Minimum frame rate : 19.561 fps Maximum frame rate : 90 000.000 fps Color space : YUV Chroma subsampling : 4:2:0 Bit depth : 8 bits Scan type : Progressive Bits/(Pixel*Frame) : 0.487 Stream size : 16.9 GiB (96%) Writing library : x264 core 128 Encoding settings : cabac=1 / ref=4 / deblock=1:0:0 / analyse=0x3:0x133 / me=umh / subme=10 / psy=1 / psy_rd=1.00:0.15 / mixed_ref=1 / me_range=32 / chroma_me=1 / trellis=2 / 8x8dct=1 / cqm=0 / deadzone=21,11 / fast_pskip=1 / chroma_qp_offset=-3 / threads=12 / lookahead_threads=2 / sliced_threads=0 / nr=0 / decimate=1 / interlaced=0 / bluray_compat=0 / constrained_intra=0 / bframes=4 / b_pyramid=2 / b_adapt=2 / b_bias=0 / direct=3 / weightb=1 / open_gop=0 / weightp=2 / keyint=300 / keyint_min=30 / scenecut=40 / intra_refresh=0 / rc_lookahead=60 / rc=crf / mbtree=1 / crf=18.0 / qcomp=0.60 / qpmin=4 / qpmax=69 / qpstep=4 / ip_ratio=1.40 / aq=1:1.00 Language : English Encoded date : UTC 2012-12-28 03:38:34 Tagged date : UTC 2012-12-28 13:43:04 Color primaries : BT.709 Transfer characteristics : BT.709 Matrix coefficients : BT.709 Audio #1 ID : 2 Format : AAC Format/Info : Advanced Audio Codec Format profile : LC Codec ID : 40 Duration : 2h 15mn Bit rate mode : Variable Bit rate : 197 Kbps Maximum bit rate : 327 Kbps Channel(s) : 2 channels Channel positions : Front: L R Sampling rate : 48.0 KHz Compression mode : Lossy Delay relative to video : 83ms Stream size : 190 MiB (1%) Language : English Encoded date : UTC 2012-12-28 03:38:34 Tagged date : UTC 2012-12-28 13:43:04 Audio #2 ID : 3 Format : AC-3 Format/Info : Audio Coding 3 Mode extension : CM (complete main) Format settings, Endianness : Big Codec ID : ac-3 Duration : 2h 15mn Bit rate mode : Constant Bit rate : 640 Kbps Channel(s) : 6 channels Channel positions : Front: L C R, Side: L R, LFE Sampling rate : 48.0 KHz Bit depth : 16 bits Compression mode : Lossy Delay relative to video : 83ms Stream size : 618 MiB (3%) Language : English Encoded date : UTC 2012-12-28 03:38:34 Tagged date : UTC 2012-12-28 13:43:04-------------------------------------Torrent downloaded from http://thepiratebay.se

related torrents

Torrent name

health leech seeds Size
 


comments (0)

Main Menu

Cheap VPN