Other

Guns N' Roses - Appetite for Destruction (1987) [SHM-CD][EAC APE,CUE]

  • Download Faster
  • Download torrent
  • Direct Download
  • Rate this torrent +  |  -
Guns N' Roses - Appetite for Destruction (1987) [SHM-CD][EAC APE,CUE]

Download Anonymously! And Get Protected Today with 6 Months FREE VPN!


Torrent info

Name:Guns N' Roses - Appetite for Destruction (1987) [SHM-CD][EAC APE,CUE]

Infohash: D02F3C13191A24A851311A666FC64D6007EC1B36

Total Size: 380.27 MB

Seeds: 6

Leechers: 0

Stream: Watch Full Movie @ Movie4u

Last Updated: 2016-12-19 22:45:03 (Update Now)

Torrent added: 2013-05-24 15:34:40



Cheap VPN For Torrents

Torrent Files List


 

tracker

leech seeds
 

Torrent description

screens;

http://baypic.net/img-519fbd4c1ab10.html

http://baypic.net/img-519fbd4e68230.html

http://baypic.net/img-519fbd50b6333.html

Format : MPEG-4
Format profile : Base Media / Version 2
Codec ID : mp42
File size : 2.67 GiB
Duration : 43mn 4s
Overall bit rate mode : Variable
Overall bit rate : 8 866 Kbps
Encoded date : UTC 2013-05-23 21:33:37
Tagged date : UTC 2013-05-23 21:33:37
Writing library : Apple QuickTime

Video
ID : 1
Format : AVC
Format/Info : Advanced Video Codec
Format profile : [email protected]
Format settings, CABAC : No
Format settings, ReFrames : 2 frames
Codec ID : avc1
Codec ID/Info : Advanced Video Coding
Duration : 43mn 4s
Source duration : 43mn 4s
Bit rate : 8 703 Kbps
Width : 1 920 pixels
Height : 1 080 pixels
Display aspect ratio : 16:9
Frame rate mode : Constant
Frame rate : 29.970 fps
Standard : NTSC
Color space : YUV
Chroma subsampling : 4:2:0
Bit depth : 8 bits
Scan type : Progressive
Bits/(Pixel*Frame) : 0.140
Stream size : 2.62 GiB (98%)
Source stream size : 2.62 GiB (98%)
Language : English
Encoded date : UTC 2013-05-23 21:33:37
Tagged date : UTC 2013-05-23 21:33:37
mdhd_Duration : 2584110

Audio
ID : 2
Format : AAC
Format/Info : Advanced Audio Codec
Format profile : LC
Codec ID : 40
Duration : 43mn 4s
Bit rate mode : Variable
Bit rate : 160 Kbps
Maximum bit rate : 164 Kbps
Channel(s) : 2 channels
Channel positions : Front: L R
Sampling rate : 48.0 KHz
Compression mode : Lossy
Stream size : 49.3 MiB (2%)
Language : English

related torrents

Torrent name

health leech seeds Size
 


comments (0)

Main Menu

Cheap VPN