Movies - Other

The Great Locomotive Chase (Western 1956) Fess Parker, Jeffrey Hunter & Jeff York mp4

  • Download Faster
  • Download torrent
  • Direct Download
  • Rate this torrent +  |  -
The Great Locomotive Chase (Western 1956) Fess Parker, Jeffrey Hunter & Jeff York mp4

Download Anonymously! Get Protected Today And Get your 70% discount


Torrent info

Name:The Great Locomotive Chase (Western 1956) Fess Parker, Jeffrey Hunter & Jeff York mp4

Infohash: 97BD26930B587D846D311E61791710A2FC202B85

Total Size: 467.39 MB

Seeds: 1

Leechers: 0

Stream: Watch Full Movie @ Movie4u

Last Updated: 2013-12-28 06:37:30 (Update Now)

Torrent added: 2013-12-28 06:37:30






Torrent Files List


 

Announce URL: http://tracker.thepiratebay.org/announce

Torrent description

http://www.imdb.com/title/tt0049279/?ref_=fn_al_tt_1


A very good quality film.


English subtitles!


Storyline:

This is based on a true story. During the Civil War, a Union spy, Andrews, is asked to lead a band of Union soldiers into the South so that they could destroy the railway system. However, things dont go as planned when the conductor of the train that they stole is on to them and is doing everything he can to stop them.


Technical info:


General:

Complete name: : The Great Locomotive Chase (Western 1956) Fess Parker, Jeffrey Hunter Jeff York.mp4

Format : MPEG-4
Format profile : Base Media / Version 2
Codec ID : mp42
File size : 467 MiB
Duration : 1h 27mn
Overall bit rate mode : Variable
Overall bit rate : 745 Kbps
Encoded date : UTC 2013-12-16 00:01:18
Tagged date : UTC 2013-12-16 02:40:14


Video:

ID : 1
Format : AVC
Format/Info : Advanced Video Codec
Format profile : [email protected]
Format settings, CABAC : Yes
Format settings, ReFrames : 8 frames
Codec ID : avc1
Codec ID/Info : Advanced Video Coding
Duration : 1h 27mn
Bit rate mode : Variable
Bit rate : 576 Kbps
Width : 640 pixels
Height : 480 pixels
Display aspect ratio : 4:3
Frame rate mode : Variable
Frame rate : 23.976 fps
Minimum frame rate : 23.974 fps
Maximum frame rate : 23.981 fps
Color space : YUV
Chroma subsampling : 4:2:0
Bit depth : 8 bits
Scan type : Progressive
Bits/(Pixel*Frame) : 0.078
Stream size : 361 MiB (77%)
Writing library : x264 core 130 r2273 b3065e6
Encoding settings : Deleted
Encoded date : UTC 2013-12-16 00:01:18
Tagged date : UTC 2013-12-16 02:40:14
Color primaries : BT.601 NTSC
Transfer characteristics : BT.709
Matrix coefficients : BT.601

Audio:

ID : 2
Format : AAC
Format/Info : Advanced Audio Codec
Format profile : LC
Codec ID : 40
Duration : 1h 27mn
Bit rate mode : Variable
Bit rate : 160 Kbps
Maximum bit rate : 211 Kbps
Channel(s) : 2 channels
Channel positions : Front: L R
Sampling rate : 48.0 KHz
Compression mode : Lossy
Delay relative to video : 83ms
Stream size : 100 MiB (21%)
Language : English
Encoded date : UTC 2013-12-16 00:01:18
Tagged date : UTC 2013-12-16 02:40:13

Text:

ID : 3
Format : mp4s
Codec ID : E0
Duration : 1h 27mn
Bit rate mode : Variable
Bit rate : 4 759 bps
Maximum bit rate : 4 274 Mbps
Delay relative to video : 83ms
Stream size : 2.97 MiB (1%)
Language : English
Encoded date : UTC 2013-12-16 00:01:18
Tagged date : UTC 2013-12-16 02:40:13

related torrents

Torrent name

health leech seeds Size
 


comments (0)

Main Menu