Movies - Other

The Lord of the Rings The Fellowship of the Ring Extended Edition Bluray REMUX 1080P DTS MKV - Ofek

  • Download Faster
  • Download torrent
  • Direct Download
  • Rate this torrent +  |  -
The Lord of the Rings The Fellowship of the Ring Extended Edition Bluray REMUX 1080P DTS MKV - Ofek

Download Anonymously! Get Protected Today And Get your 70% discount


Torrent info

Name:The Lord of the Rings The Fellowship of the Ring Extended Edition Bluray REMUX 1080P DTS MKV - Ofek

Infohash: B6B785D8D756117F1B9BCD09481583DE41209C02

Total Size: 50.03 GB

Seeds: 0

Leechers: 0

Stream: Watch Full Movie @ Movie4u

Last Updated: 2018-09-01 15:39:54 (Update Now)

Torrent added: 2014-03-14 01:34:26






Torrent Files List


 

tracker

leech seeds
 

Torrent description

Please leave feedback!

Extended edition, both halves merged into 1 mkv. foreign dialogue external srt included

General
Unique ID : 311355683764615589880125055166871582251 (0xEA3CEC68A4E97F57B63862BC8395362B)
Format : Matroska
Format version : Version 2
File size : 50.0 GiB
Duration : 3h 48mn
Overall bit rate mode : Variable
Overall bit rate : 31.4 Mbps
Writing application : Lavf54.63.104
Writing library : Lavf54.63.104

Video
ID : 1
Format : AVC
Format/Info : Advanced Video Codec
Format profile : [email protected]
Format settings, CABAC : Yes
Format settings, ReFrames : 2 frames
Format settings, GOP : M=1, N=10
Codec ID : V_MPEG4/ISO/AVC
Duration : 3h 48mn
Bit rate mode : Variable
Bit rate : 29.2 Mbps
Width : 1 920 pixels
Height : 1 080 pixels
Display aspect ratio : 16:9
Frame rate mode : Constant
Frame rate : 23.976 fps
Color space : YUV
Chroma subsampling : 4:2:0
Bit depth : 8 bits
Scan type : Progressive
Bits/(Pixel*Frame) : 0.588
Stream size : 46.6 GiB (93%)
Default : Yes
Forced : No

Audio
ID : 2
Format : DTS
Format/Info : Digital Theater Systems
Format profile : ES
Mode : 16
Format settings, Endianness : Big
Codec ID : A_DTS
Duration : 3h 48mn
Bit rate mode : Constant
Bit rate : 1 509 Kbps
Channel(s) : 7 channels / 6 channels
Channel positions : Front: L C R, Side: L R, Back: C, LFE / Front: L C R, Side: L R, LFE
Sampling rate : 48.0 KHz
Bit depth : 24 bits
Compression mode : Lossy
Stream size : 2.41 GiB (5%)
Default : Yes
Forced : No

related torrents

Torrent name

health leech seeds Size
 


comments (0)

Main Menu