TV - Other

Comedy Underground with Dave Attell S01E01 720p HDTV x264-BWB mkv

  • Download Faster
  • Download torrent
  • Direct Download
  • Rate this torrent +  |  -
Comedy Underground with Dave Attell S01E01 720p HDTV x264-BWB mkv

Download Anonymously! Get Protected Today And Get your 70% discount


Torrent info

Name:Comedy Underground with Dave Attell S01E01 720p HDTV x264-BWB mkv

Infohash: 3795CF050073B6621F9159DADC2931EB3666F24D

Total Size: 545.49 MB

Seeds: 0

Leechers: 0

Stream: Watch Full Movie @ Movie4u

Last Updated: 2019-10-31 16:36:35 (Update Now)

Torrent added: 2014-04-14 02:34:03






Torrent Files List


Comedy.Underground.with.Dave.Attell.S01E01.720p.HDTV.x264-BWB.mkv (Size: 545.49 MB) (Files: 1)

 Comedy.Underground.with.Dave.Attell.S01E01.720p.HDTV.x264-BWB.mkv

545.49 MB
 

tracker

leech seeds
 

Torrent description

Dave Attell makes his return to Comedy Central in the networks first-ever uncensored late-night stand-up series, Comedy Underground with Dave Attell. Attell is joined by old friends as well as some new faces in their rawest, unfiltered state in New York Citys historic Village Underground. Guests include Judah Friedlander, Ralphie May, Nikki Glaser, Ari Shaffir, Lil Rel Howery, and Ali Wong plus special guest appearances from Triumph the Insult Comic Dog, Jeffrey Ross, Amy Schumer, Artie Lange, Jim Norton, Ron Jeremy and Teen Moms Farrah Abraham.

Season 1, Episode 1
The first episode featured stand-up from Joe DeRosa, Jermaine Fowler, Jay Oakerson and Jeff Ross.

http://www.tvrage.com/shows/id-41572
http://www.cc.com/shows/comedy-underground-with-dave-attell

Comedy.Underground.with.Dave.Attell.S01E01.720p.HDTV.x264-BWB
MKV | AC3 CBR | 545MB

General
Format : Matroska
Format version : Version 4 / Version 2
File size : 545 MiB
Duration : 20mn 40s

Video
Format : AVC
Format/Info : Advanced Video Codec
Format profile : [email protected]
Bit rate : 3 232 Kbps
Width : 1 280 pixels
Height : 720 pixels
Display aspect ratio : 16:9
Frame rate mode : Constant
Frame rate : 23.976 fps
Stream size : 478 MiB (88%)
Language : English

Audio
ID : 2
Format : AC-3
Bit rate mode : Constant
Bit rate : 384 Kbps
Channel(s) : 2 channels
Channel positions : Front: L R
Sampling rate : 48.0 KHz
Stream size : 56.8 MiB (10%)

Text
Format : UTF-8
Codec ID : S_TEXT/UTF8
Codec ID/Info : UTF-8 Plain Text
Language : English

related torrents

Torrent name

health leech seeds Size
 


comments (0)

Main Menu