Movies - Other

Gravedad [Gravity] 2013 DVDRip x264 AAC [Audio Español Latino] -ROSTROMASCARADO

  • Download Faster
  • Download torrent
  • Direct Download
  • Rate this torrent +  |  -
Gravedad [Gravity] 2013 DVDRip x264 AAC [Audio Español Latino] -ROSTROMASCARADO

Download Anonymously! Get Protected Today And Get your 70% discount


Torrent info

Name:Gravedad [Gravity] 2013 DVDRip x264 AAC [Audio Español Latino] -ROSTROMASCARADO

Infohash: 773E8FD7B3CACF1B71A91DCE52D8A6A16BCDA918

Total Size: 912.24 MB

Seeds: 1

Leechers: 0

Stream: Watch Full Movie @ Movie4u

Last Updated: 0000-00-00 00:00:00 (Update Now)

Torrent added: 2014-04-25 18:35:17






Torrent Files List


 

tracker

leech seeds
 

Torrent description

Gravedad [Gravity] (2013)
*Audio Español Latino


A medical engineer and an astronaut work together to survive after a catastrophe destroys their shuttle and leaves them adrift in orbit.

Durante un paseo espacial rutinario, dos astronautas sufren un grave accidente y quedan flotando en el espacio. Una es la doctora Ryan Stone, una brillante ingeniera en su primera misión espacial en la Shuttle. Su acompañante es el veterano astronauta Matt Kowalsky. Durante el paseo algo sale mal y ocurre el desastre: el shuttle queda destrozado, dejando a Ryan y Matt completamente solos, momento a partir del cual intentarán por todos los medios volver a la Tierra.



General
Format : MPEG-4
Format profile : Base Media / Version 2
Codec ID : mp42
File size : 900 MiB
Duration : 1h 30mn
Overall bit rate mode : Variable
Overall bit rate : 1 383 Kbps
Encoded date : UTC 2014-04-19 18:19:44
Tagged date : UTC 2014-04-19 19:07:24
Director : Alfonso Cuarón
Writers : Alfonso Cuarón, Jonás Cuarón
Stars : Sandra Bullock, George Clooney, Ed Harris
Genres : Drama | Sci-Fi | Thriller
Country : USA | UK
Language : Spanish
Release Date : October 4th, 2013
Production Company / Label : Warner Bros., Esperanto Filmoj, Heyday Films
Filming Locations : Lake Powell, Arizona, USA

Video
ID : 1
Format : AVC
Format/Info : Advanced Video Codec
Format profile : [email protected]
Format settings, CABAC : Yes
Format settings, ReFrames : 4 frames
Codec ID : avc1
Codec ID/Info : Advanced Video Coding
Duration : 1h 30mn
Bit rate mode : Variable
Bit rate : 1 200 Kbps
Width : 720 pixels
Height : 304 pixels
Display aspect ratio : 2.35:1
Frame rate mode : Variable
Frame rate : 23.976 fps
Minimum frame rate : 23.974 fps
Maximum frame rate : 90 000.000 fps
Color space : YUV
Chroma subsampling : 4:2:0
Bit depth : 8 bits
Scan type : Progressive
Bits/(Pixel*Frame) : 0.229
Stream size : 772 MiB (86%)
Writing library : x264 core 130 r2273 b3065e6
Encoded date : UTC 2014-04-19 18:19:44
Tagged date : UTC 2014-04-19 19:07:24
Color primaries : BT.601 NTSC
Transfer characteristics : BT.709
Matrix coefficients : BT.601

Audio
ID : 2
Format : AAC
Format/Info : Advanced Audio Codec
Format profile : LC
Codec ID : 40
Duration : 1h 30mn
Bit rate mode : Variable
Bit rate : 192 Kbps
Maximum bit rate : 383 Kbps
Channel count : 2 channels
Channel positions : Front: L R
Sampling rate : 48.0 KHz
Compression mode : Lossy
Delay relative to video : 83ms
Stream size : 125 MiB (14%)
Language : Spanish
Encoded date : UTC 2014-04-19 18:19:44
Tagged date : UTC 2014-04-19 19:07:23


***SCREENSHOTS***


Gravedad [Gravity] 2013 DVDRip x264 AAC [Audio Español Latino] -ROSTROMASCARADO preview 0
Gravedad [Gravity] 2013 DVDRip x264 AAC [Audio Español Latino] -ROSTROMASCARADO preview 1
Gravedad [Gravity] 2013 DVDRip x264 AAC [Audio Español Latino] -ROSTROMASCARADO preview 2
Gravedad [Gravity] 2013 DVDRip x264 AAC [Audio Español Latino] -ROSTROMASCARADO preview 3
Gravedad [Gravity] 2013 DVDRip x264 AAC [Audio Español Latino] -ROSTROMASCARADO preview 4
Gravedad [Gravity] 2013 DVDRip x264 AAC [Audio Español Latino] -ROSTROMASCARADO preview 5

related torrents

Torrent name

health leech seeds Size
 


comments (0)

Main Menu