Movies - Other

Line Of Duty Season 2

  • Download Faster
  • Download torrent
  • Direct Download
  • Rate this torrent +  |  -
Line Of Duty Season 2

Download Anonymously! Get Protected Today And Get your 70% discount


Torrent info

Name:Line Of Duty Season 2

Infohash: 50B0D67AFB230E89B949150C23F297B322E33CD9

Total Size: 14.31 GB

Seeds: 0

Leechers: 0

Stream: Watch Full Movie @ Movie4u

Last Updated: 2021-03-20 11:09:36 (Update Now)

Torrent added: 2014-08-16 20:34:38






Torrent Files List


A Guide to Good Torrents.txt (Size: 14.31 GB) (Files: 7)

 A Guide to Good Torrents.txt

1.63 KB

 Front Cover Large.jpg

28.31 MB

 Front Cover Small.jpg

7.13 KB

 Line Of Duty S02 Disc 1.iso

7.37 GB

 Line Of Duty S02 Disc 2.iso

6.92 GB

 Plot.txt

1.54 KB

 The Idiot's Guide to Bit Torrent.txt

5.77 KB
 

tracker

leech seeds
 

Torrent description

=======================================================
==== w w w . t h e p i r a t e f i l m e s . c o m ====
=======================================================
Não aceite cópias, visite o original!^


IMDB RATING: 5.8

Titulo original-------------------Brick Mansions
Lançamento------------------------2013
Genero----------------------------Ação, Crime, Drama
Formato---------------------------MP4

--------------------------------------------------------------------------

Brick Mansions é uma área da cidade de Detroit onde a violência tem índices altíssimos, o que fez com que a prefeitura local praticamente abandonasse o local à própria sorte. Com isso, traficantes como Tremaine Alexander (RZA) ganharam status e poder, por mais que sejam combatidos por Lino (David Belle), um especialista em le parkour que tenta erradicar as drogas do local. Entretanto, Lino tem problemas com a polícia, corrompida pelo crime organizado, o que faz com que seja preso. Um dos poucos que tentam realmente seguir as leis é Damien Collier (Paul Walker), um detetive que recebe como missão entrar em Brick Mansions para resgatar uma bomba que pode matar milhões. Para tanto, ele precisa contar com a ajuda de Lino, que deseja retornar ao local para resgatar Lola (Catalina Denis), sua namorada, que foi raptada pelos capangas de Tremaine.

--------------------------------------------------------------------------

Format : MPEG-4
Format profile : Base Media
Codec ID : isom
File size : 745 MiB
Duration : 1h 30mn
Overall bit rate mode : Variable
Overall bit rate : 1 155 Kbps

Video
ID : 1
Format : AVC
Format/Info : Advanced Video Codec
Format profile : [email protected]
Format settings, CABAC : Yes
Format settings, ReFrames : 4 frames
Codec ID : avc1
Codec ID/Info : Advanced Video Coding
Duration : 1h 30mn
Bit rate : 986 Kbps
Maximum bit rate : 14.1 Mbps
Width : 1 280 pixels
Height : 536 pixels
Display aspect ratio : 2.40:1
Frame rate mode : Constant
Frame rate : 24.000 fps
Color space : YUV
Chroma subsampling : 4:2:0
Bit depth : 8 bits
Scan type : Progressive
Bits/(Pixel*Frame) : 0.060
Stream size : 636 MiB (85%)

Audio
ID : 2
Format : AAC
Format/Info : Advanced Audio Codec
Format profile : LC
Codec ID : 40
Duration : 1h 30mn
Bit rate mode : Variable
Bit rate : 165 Kbps
Maximum bit rate : 236 Kbps
Channel(s) : 2 channels
Channel positions : Front: L R
Sampling rate : 48.0 KHz
Compression mode : Lossy
Stream size : 107 MiB (14%)

--------------------------------------------------------------------------

Após terminar o Download continue Semeando para que eu possa enviar mais filmes!

=======================================================
==== w w w . t h e p i r a t e f i l m e s . c o m ====
=======================================================
Não aceite cópias, visite o original!^

related torrents

Torrent name

health leech seeds Size
 


comments (0)

Main Menu