TV - Other

Crimes of Passion S01E02 - King Lily of the Valley x264 RB58 mp4

  • Download Faster
  • Download torrent
  • Direct Download
  • Rate this torrent +  |  -
Crimes of Passion S01E02 - King Lily of the Valley x264 RB58 mp4

Download Anonymously! Get Protected Today And Get your 70% discount


Torrent info

Name:Crimes of Passion S01E02 - King Lily of the Valley x264 RB58 mp4

Infohash: 3C92F8D08114F1798F51698B7C04A385769A6878

Total Size: 956.22 MB

Seeds: 0

Leechers: 0

Stream: Watch Full Movie @ Movie4u

Last Updated: 2018-10-02 18:41:58 (Update Now)

Torrent added: 2014-09-07 12:34:08






Torrent Files List


 

tracker

leech seeds
 

Torrent description

Crimes of Passion (Swedish) S01E02 English Subs x264 mp4

In Swedish With BBC Hard Coded Engish Subtitles

Episode Title: King Lily of the Valley

http://www.imdb.com/title/tt2511752/

Trailer: (E01)


Thank you for your kind comments and thumbs ups on my other torrents, your feedback is welcome.


About the Episode:
A bride-to-be goes missing the day before her wedding, and attending guests Puck, Einar and Christer are
drawn into another investigation.
The trio find themselves with no shortage of suspects, not least the bride\'s best friend, with whom
Christer develops a sudden rapport.

Swedish crime drama, starring Tuva Novotny


I hope you enjoy.

Technical:

General
Complete name : H:Crimes of Passion S01E02 - King Lily of the Valley x264 RB58.mp4
Format : MPEG-4
Format profile : Base Media
Codec ID : isom
File size : 956 MiB
Duration : 1h 28mn
Overall bit rate mode : Constant
Overall bit rate : 1 503 Kbps
Writing application : Lavf54.63.104

Video
ID : 1
Format : AVC
Format/Info : Advanced Video Codec
Format profile : [email protected]
Format settings, CABAC : Yes
Format settings, ReFrames : 2 frames
Codec ID : avc1
Codec ID/Info : Advanced Video Coding
Duration : 1h 28mn
Bit rate mode : Constant
Bit rate : 1 404 Kbps
Width : 832 pixels
Height : 468 pixels
Display aspect ratio : 16:9
Frame rate mode : Constant
Frame rate : 25.000 fps
Color space : YUV
Chroma subsampling : 4:2:0
Bit depth : 8 bits
Scan type : Progressive
Bits/(Pixel*Frame) : 0.144
Stream size : 893 MiB (93%)

Audio
ID : 2
Format : AAC
Format/Info : Advanced Audio Codec
Format profile : LC
Codec ID : 40
Duration : 1h 28mn
Bit rate mode : Constant
Bit rate : 93.5 Kbps
Channel(s) : 2 channels
Channel positions : Front: L R
Sampling rate : 48.0 KHz
Compression mode : Lossy
Stream size : 59.5 MiB (6%)

related torrents

Torrent name

health leech seeds Size
 


comments (0)

Main Menu