Movies - Other

Step Up All In 2014 BRRip 480p x264 AAC-VYTO [P2PDL]

  • Download Faster
  • Download torrent
  • Direct Download
  • Rate this torrent +  |  -
Step Up All In 2014 BRRip 480p x264 AAC-VYTO [P2PDL]

Download Anonymously! Get Protected Today And Get your 70% discount


Torrent info

Name:Step Up All In 2014 BRRip 480p x264 AAC-VYTO [P2PDL]

Infohash: F250D5C2925C2FAF39D0F9D28B05C5E06939414D

Total Size: 424.75 MB

Seeds: 0

Leechers: 4

Stream: Watch Full Movie @ Movie4u

Last Updated: 2017-04-04 06:09:22 (Update Now)

Torrent added: 2014-10-25 04:34:08






Torrent Files List


 

tracker

leech seeds
 

Torrent description

Step.Up.All.In.2014.BRRip.480p.x264.AAC-VYTO


Genre: Drama | Music | Romance
IMDb: http://www.imdb.com/title/tt2626350/


General
Format : MPEG-4
File size : 420 MiB
Duration : 1h 51mn
Overall bit rate : 525 Kbps

Video
Format : AVC
Bit rate : 480 Kbps
Width : 720 pixels
Height : 416 pixels
Display aspect ratio : 16:9
Frame rate : 23.976 fps
Bit depth : 8 bits
Stream size : 384 MiB (91%)
Writing library : x264 core 142 r2479 dd79a61

Audio
Format : AAC
Bit rate : 40.0 Kbps
Channel(s) : 2 channels
Channel positions : Front: L R
Sampling rate : 48.0 KHz
Stream size : 32.0 MiB (8%)
Language : English

Subtitle : Yes(English)

Source : 720p.BluRay.x264-SPARKS

http://someimage.com/WthX9gE
http://someimage.com/uoWDKFm
http://someimage.com/qa15Y6j
http://someimage.com/GeDfOEQ
http://someimage.com/10TC53U
http://someimage.com/4svdCqv
http://someimage.com/Mv7vqdW
http://someimage.com/QmjYa6r
http://someimage.com/BIJL7aV
http://someimage.com/oIrBYDg

----------------------------------------------------------------------------------------------------


Encoded using revolutionary 10bit encoding, which enables us to provide you more crispier
and sharper images at small sizes, just make sure you follow our instructions without a fault.
Recommend to you to use latest version of VLC player. Install K-Lite Codec Pack or shark007 codecs
in case of any kind of problem in playback (For non-VLC Media Player users). Alternatively, install
Core AVC codecs, the fastest decoder that there is coupled with Community Center Codec Pack and play
on Windows Media Player Classic. Check sample to be sure.
Enjoy!

Encoder Notes: Looking For Early Access To Anything You Can Provide DVDScr, R5, DVDR, BluRay, Direct
Audio, Music Releases and Seedboxes. We require dedicated servers, so as to do more
and fast releases of movies.
If You Got anything to offer please contact us.

Find us! Support us!

related torrents

Torrent name

health leech seeds Size
 


comments (0)

Main Menu