Movies - Other

Transformers The Last Knight 2017 Movies HC HDRip XviD AAC New Source with Sample ☻rDX☻

  • Download Faster
  • Download torrent
  • Direct Download
  • Rate this torrent +  |  -
Transformers The Last Knight 2017 Movies HC HDRip XviD AAC New Source with Sample ☻rDX☻

Download Anonymously! Get Protected Today And Get your 70% discount


Torrent info

Name:Transformers The Last Knight 2017 Movies HC HDRip XviD AAC New Source with Sample ☻rDX☻

Infohash: 442450BF029161CB1126F9D0BD2A0F7A68A30846

Total Size: 704.98 MB

Seeds: 2

Leechers: 0

Stream: Watch Full Movie @ Movie4u

Last Updated: 2019-04-03 13:19:55 (Update Now)

Torrent added: 2017-09-06 17:00:05






Torrent Files List


 

tracker

leech seeds
 

Torrent description

----------------------------------------------------------------
Transformers The Last Knight 2017 Movies HC HDRip XviD AAC New Source with Sample ☻rDX☻

SCREEN SHOTS & POSTER:

http://postimage.co.nr/2017/8/amazon/index.html
http://postimage.co.nr/2017/8/amazon/1.html
http://postimage.co.nr/2017/8/amazon/2.html
http://postimage.co.nr/2017/8/amazon/3.html
http://postimage.co.nr/2017/8/amazon/4.html
http://postimage.co.nr/2017/8/amazon/5.html
http://postimage.co.nr/2017/8/amazon/6.html
http://postimage.co.nr/2017/8/amazon/7.html
http://postimage.co.nr/2017/8/amazon/8.html
http://postimage.co.nr/2017/8/amazon/9.html
http://postimage.co.nr/2017/8/amazon/10.html

File size : 697 MiB
Duration : 2 h 26 min
Overall bit rate mode : Constant
Overall bit rate : 664 kb/s
Movie name : Transformers The Last Knight 2017 Movies HC HDRip XviD AAC New Source ☻rDX☻

Video
ID : 2
Format : AVC
Format/Info : Advanced Video Codec
Format profile : [emailprotected]
Format settings, CABAC : Yes
Format settings, ReFrames : 2 frames
Format settings, GOP : M=1, N=12
Codec ID : V_MPEG4/ISO/AVC
Duration : 2 h 26 min
Bit rate mode : Constant
Bit rate : 473 kb/s
Width : 680 pixels
Height : 310 pixels
Display aspect ratio : 2.2:1
Frame rate mode : Constant
Frame rate : 24.000 FPS
Color space : YUV
Chroma subsampling : 4:2:0
Bit depth : 8 bits
Scan type : Progressive
Bits/(Pixel*Frame) : 0.093
Stream size : 482 MiB (69%)
Title : ☻rDX☻
Default : Yes
Forced : No

Audio
ID : 1
Format : AC-3
Format/Info : Audio Coding 3
Mode extension : CM (complete main)
Format settings, Endianness : Big
Codec ID : A_AC3
Duration : 2 h 26 min
Bit rate mode : Constant
Bit rate : 192 kb/s
Channel(s) : 2 channels
Channel positions : Front: L R
Sampling rate : 48.0 kHz
Frame rate : 31.250 FPS (1536 spf)
Bit depth : 16 bits
Compression mode : Lossy
Stream size : 202 MiB (29%)
Title : ☻rDX☻
Default : Yes
Forced : No

related torrents

Torrent name

health leech seeds Size
 


comments (0)

Main Menu