Movies - Other

Pitch Perfect 3 2017 720p HC HDRip X264 AC3 LLG

  • Download Faster
  • Download torrent
  • Direct Download
  • Rate this torrent +  |  -
Pitch Perfect 3 2017 720p HC HDRip X264 AC3 LLG

Download Anonymously! Get Protected Today And Get your 70% discount


Torrent info

Name:Pitch Perfect 3 2017 720p HC HDRip X264 AC3 LLG

Infohash: B11E1FC8084D03C22E7D881CC41EEDF7542788B8

Total Size: 883.12 MB

Seeds: 7

Leechers: 5

Stream: Watch Full Movie @ Movie4u

Last Updated: 2018-04-19 01:27:01 (Update Now)

Torrent added: 2018-02-17 21:51:42






Torrent Files List


Sample.ts (Size: 883.12 MB) (Files: 2)

 Sample.ts

14.99 MB

 Pitch.Perfect.3.2017.720p.HC.HDRip.X264.AC3.LLG.mp4

868.13 MB
 

tracker

leech seeds
 

Torrent description

******************************Screenshots:********************

http://picserver4u.com/apple/0001.html

http://picserver4u.com/apple/0002.html

http://picserver4u.com/apple/0003.html

http://picserver4u.com/apple/0004.html

http://picserver4u.com/apple/0005.html

**************************************************************
Complete name : Pitch.Perfect.3.2017.720p.HC.HDRip.X264.AC3.LLG.mp4
Format : MPEG-4
Format profile : Base Media
Codec ID : isom (isom/iso2/avc1/mp41)
File size : 868 MiB
Duration : 1 h 32 min
Overall bit rate : 1 317 kb/s
Writing application : Lavf57.56.101

Video
ID : 1
Format : AVC
Format/Info : Advanced Video Codec
Format profile : [emailprotected]
Format settings : CABAC / 4 Ref Frames
Format settings, CABAC : Yes
Format settings, RefFrames : 4 frames
Codec ID : avc1
Codec ID/Info : Advanced Video Coding
Duration : 1 h 32 min
Bit rate : 1 200 kb/s
Width : 1 280 pixels
Height : 688 pixels
Display aspect ratio : 1.85:1
Frame rate mode : Constant
Frame rate : 25.000 FPS
Color space : YUV
Chroma subsampling : 4:2:0
Bit depth : 8 bits
Scan type : Progressive
Bits/(Pixel*Frame) : 0.055
Stream size : 781 MiB (90%)

Audio
ID : 2
Format : AC-3
Format/Info : Audio Coding 3
Codec ID : ac-3
Duration : 1 h 32 min
Bit rate mode : Constant
Bit rate : 128 kb/s
Channel(s) : 2 channels
Channel positions : Front: L R
Sampling rate : 48.0 kHz
Frame rate : 31.250 FPS (1536 SPF)
Bit depth : 16 bits
Compression mode : Lossy
Stream size : 84.4 MiB (10%)
Language : English
Service kind : Complete Main
Default : Yes
Alternate group : 1

related torrents

Torrent name

health leech seeds Size
 


comments (0)

Main Menu