Movies - Other

The Shaggy Dog 1959 1080p AMZN WEBRip DDP2 0 x264-ABM

  • Download Faster
  • Download torrent
  • Direct Download
  • Rate this torrent +  |  -
The Shaggy Dog 1959 1080p AMZN WEBRip DDP2 0 x264-ABM

Download Anonymously! Get Protected Today And Get your 70% discount


Torrent info

Name:The Shaggy Dog 1959 1080p AMZN WEBRip DDP2 0 x264-ABM

Infohash: F5040085F7D7C0BA9D8F5111875D2DAEBBE4DA6E

Total Size: 10.78 GB

Seeds: 18

Leechers: 43

Stream: Watch Full Movie @ Movie4u

Last Updated: 2018-08-14 20:40:29 (Update Now)

Torrent added: 2018-08-14 21:40:27






Torrent Files List


RARBG.txt (Size: 10.78 GB) (Files: 2)

 RARBG.txt

0.03 KB

 The.Shaggy.Dog.1959.1080p.AMZN.WEB-DL.DDP2.0.x264-ABM.mkv

10.78 GB
 

tracker

leech seeds
 

Torrent description

https://www.imdb.com/title/tt0053271/

Video
ID : 1
Format : AVC
Format/Info : Advanced Video Codec
Format profile : [email protected]
Format settings : CABAC / 4 Ref Frames
Format settings, CABAC : Yes
Format settings, ReFrames : 4 frames
Codec ID : V_MPEG4/ISO/AVC
Duration : 1 h 41 min
Bit rate mode : Variable
Bit rate : 14.7 Mb/s
Maximum bit rate : 15.0 Mb/s
Width : 1 920 pixels
Height : 1 080 pixels
Display aspect ratio : 16:9
Frame rate mode : Constant
Frame rate : 23.976 (24000/1001) FPS
Color space : YUV
Chroma subsampling : 4:2:0
Bit depth : 8 bits
Scan type : Progressive
Bits/(Pixel*Frame) : 0.295
Stream size : 10.4 GiB (97%)
Writing library : x264 core 148 r2623 d5b2374
Encoding settings : cabac=1 / ref=4 / deblock=1:-1:-1 / analyse=0x3:0x133 / me=umh / subme=9 / psy=1 / psy_rd=1.00:0.15 / mixed_ref=1 / me_range=24 / chroma_me=1 / trellis=2 / 8x8dct=1 / cqm=0 / deadzone=21,11 / fast_pskip=1 / chroma_qp_offset=-3 / threads=34 / lookahead_threads=5 / sliced_threads=0 / nr=150 / decimate=1 / interlaced=0 / bluray_compat=0 / constrained_intra=0 / bframes=8 / b_pyramid=2 / b_adapt=2 / b_bias=0 / direct=3 / weightb=1 / open_gop=0 / weightp=2 / keyint=120 / keyint_min=61 / scenecut=0 / intra_refresh=0 / rc_lookahead=120 / rc=crf / mbtree=1 / crf=18.0 / qcomp=0.60 / qpmin=0 / qpmax=69 / qpstep=4 / vbv_maxrate=15000 / vbv_bufsize=31250 / crf_max=0.0 / nal_hrd=vbr / filler=0 / ip_ratio=1.40 / aq=3:1.00
Language : English
Default : Yes
Forced : No
Color range : Limited
Color primaries : BT.709
Transfer characteristics : BT.709
Matrix coefficients : BT.709

Audio
ID : 2
Format : E-AC-3
Format/Info : Enhanced Audio Coding 3
Codec ID : A_EAC3
Duration : 1 h 41 min
Bit rate mode : Constant
Bit rate : 224 kb/s
Channel(s) : 2 channels
Channel positions : Front: L R
Sampling rate : 48.0 kHz
Frame rate : 187.500 FPS (256 SPF)
Compression mode : Lossy
Stream size : 163 MiB (1%)
Language : English
Service kind : Complete Main
Default : Yes
Forced : No

Text
ID : 3
Format : UTF-8
Codec ID : S_TEXT/UTF8
Codec ID/Info : UTF-8 Plain Text
Language : English
Default : No
Forced : No

related torrents

Torrent name

health leech seeds Size
 


comments (0)

Main Menu