Action

The Hunted 1995 Original Vcd Rip (in Hindi)

  • Download Faster
  • Download torrent
  • Direct Download
  • Rate this torrent +  |  -
The Hunted 1995 Original Vcd Rip (in Hindi)

Download Anonymously! Get Protected Today And Get your 70% discount


Torrent info

Name:The Hunted 1995 Original Vcd Rip (in Hindi)

Infohash: 22C6E5EC2642F90B32EC776F5E9C66D9B25B4A8A

Total Size: 499.50 MB

Seeds: 0

Leechers: 0

Stream: Watch Full Movie @ Movie4u

Last Updated: 2021-07-14 18:28:33 (Update Now)

Torrent added: 2009-11-01 02:01:15






Torrent Files List


The Hunted 1995 Original Vcd Rip -=![Postarbhai]!=-.avi (Size: 499.50 MB) (Files: 1)

 The Hunted 1995 Original Vcd Rip -=![Postarbhai]!=-.avi

499.50 MB
 

Announce URL:

Torrent description

The Hunted 1995 Original Vcd Rip

-: Full Rip Information :-

General
Complete name : The Hunted 1995 Original Vcd Rip.avi
Format : AVI
Format/Info : Audio Video Interleave
File size : 500 MiB
Duration : 1h 44mn 32sec
Overall bit rate : 668 Kbps
Writing application : VirtualDubMod 1.5.4.1
Writing library : VirtualDubMod build 2178/release

Video
ID : 0
Format : MPEG-4 Visual
Format profile : [email protected]
Format settings, BVOP : Yes
Format settings, QPel : No
Format settings, GMC : No warppoints
Format settings, Matrix : Custom
Codec ID : XVID
Codec ID/Hint : XviD
Duration : 1h 44mn 32sec
Bit rate : 538 Kbps
Width : 480 pixels
Height : 368 pixels
Display aspect ratio : 4:3
Frame rate : 25.000 fps
Resolution : 24 bits
Colorimetry : 4:2:0
Scan type : Progressive
Bits/(Pixel*Frame) : 0.122
Stream size : 403 MiB (81%)
Writing library : XviD 1.2.1 (UTC 2008-12-04)

Audio
ID : 1
Format : MPEG Audio
Format version : Version 1
Format profile : Layer 3
Codec ID : 55
Codec ID/Hint : MP3
Duration : 1h 44mn 32sec
Bit rate mode : Variable
Bit rate : 117 Kbps
Nominal bit rate : 128 Kbps
Channel(s) : 2 channels
Sampling rate : 44.1 KHz
Resolution : 16 bits
Video delay : 52ms
Stream size : 87.5 MiB (18%)
Alignment : Split accross interleaves
Interleave, duration : 26 ms (0.65 video frame)
Interleave, preload duration : 558 ms
Writing library : LAME3.98r
Encoding settings : m j -V 4 -q 2 -lowpass 17 --abr 128

Screenshots:-

The Hunted 1995 Original Vcd Rip (in Hindi) preview 0

Uploader:-PLS ADD REPLY FRIENDS.

related torrents

Torrent name

health leech seeds Size
 


comments (0)

Main Menu