Movies - Other

The Bridge On The River Kwai 1957 HDTVRip H264 AAC Gopo

  • Download Faster
  • Download torrent
  • Direct Download
  • Rate this torrent +  |  -
The Bridge On The River Kwai 1957 HDTVRip H264 AAC Gopo

Download Anonymously! Get Protected Today And Get your 70% discount


Torrent info

Name:The Bridge On The River Kwai 1957 HDTVRip H264 AAC Gopo

Infohash: 27E2D33D75EC45271BF927CD8EA51E76A7D5D1B5

Total Size: 2.52 GB

Seeds: 0

Leechers: 0

Stream: Watch Full Movie @ Movie4u

Last Updated: 2021-12-10 06:17:02 (Update Now)

Torrent added: 2010-03-02 11:05:28






Torrent Files List


Sample (Size: 2.52 GB) (Files: 5)

 Sample

  Sample.mp4

17.06 MB

 The.Bridge.On.The.River.Kwai.1957.HDTVRip.H264.AAC.Gopo.mp4

2.51 GB

 The.Bridge.On.The.River.Kwai.1957.HDTVRip.H264.AAC.Gopo.srt

103.75 KB

 The.Bridge.On.The.River.Kwai.1957.HDTVRip.H264.AAC.Gopo_EN.srt

99.80 KB

 The.Bridge.On.The.River.Kwai.1957.HDTVRip.H264.AAC.Gopo.nfo

3.58 KB
 

Announce URL:

Torrent description

General
Complete name : The.Bridge.On.The.River.Kwai.1957.HDTVRip.H264.AAC.Gopo.mp4
Format : MPEG-4
Format profile : Base Media
Codec ID : isom
File size : 2.51 GiB
Duration : 2h 35mn
Overall bit rate : 2 312 Kbps
Encoded date : UTC 2010-03-01 13:53:48
Tagged date : UTC 2010-03-01 13:53:48
Video #1
ID : 1
Format : AVC
Format/Info : Advanced Video Codec
Format profile : [email protected]
Format settings, CABAC : Yes
Format settings, ReFrames : 6 frames
Codec ID : avc1
Codec ID/Info : Advanced Video Coding
Duration : 2h 35mn
Bit rate mode : Variable
Bit rate : 2 008 Kbps
Maximum bit rate : 12.5 Mbps
Width : 1 280 pixels
Height : 512 pixels
Display aspect ratio : 2.500
Frame rate mode : Constant
Frame rate : 25.000 fps
Resolution : 24 bits
Colorimetry : 4:2:0
Scan type : Progressive
Bits/(Pixel*Frame) : 0.123
Stream size : 2.18 GiB (87%)
Writing library : x264 core 84 r1416 fcf70c2
Encoding settings : cabac=1 / ref=6 / deblock=1:-3:-1 / analyse=0x3:0x133 / me=umh / subme=7 / psy=1 / psy_rd=1.0:0.1 / mixed_ref=1 / me_range=32 / chroma_me=1 / trellis=2 / 8x8dct=1 / cqm=0 / deadzone=21,11 / fast_pskip=0 / chroma_qp_offset=-3 / threads=2 / sliced_threads=0 / nr=0 / decimate=1 / mbaff=0 / constrained_intra=0 / bframes=6 / b_pyramid=2 / b_adapt=2 / b_bias=0 / direct=1 / wpredb=1 / wpredp=2 / keyint=250 / keyint_min=25 / scenecut=40 / intra_refresh=0 / rc_lookahead=40 / rc=2pass / mbtree=1 / bitrate=2008 / ratetol=1.0 / qcomp=0.60 / qpmin=10 / qpmax=51 / qpstep=4 / cplxblur=20.0 / qblur=0.5 / vbv_maxrate=40000 / vbv_bufsize=40000 / ip_ratio=1.40 / aq=1:1.00
Encoded date : UTC 2010-02-28 19:55:32
Tagged date : UTC 2010-03-01 14:00:21
Audio #2
ID : 2
Format : AAC
Format/Info : Advanced Audio Codec
Format version : Version 4
Format profile : LC
Format settings, SBR : No
Codec ID : 40
Duration : 2h 35mn
Bit rate mode : Variable
Bit rate : 300 Kbps
Maximum bit rate : 353 Kbps
Channel(s) : 2 channels
Channel positions : L R
Sampling rate : 48.0 KHz
Resolution : 16 bits
Stream size : 333 MiB (13%)
Encoded date : UTC 2010-03-01 13:59:28
Tagged date : UTC 2010-03-01 14:00:21
Sample : YES
Subtitle : English,Romanian

PLOT

After settling his differences with a Japanese PoW camp commander, a British colonel co-operates to oversee his men\'s construction of a railway bridge for their captors - while oblivious to a plan by the Allies to destroy it.
Director: David Lean
CASTING

William Holden ... Shears
Alec Guinness ... Colonel Nicholson
Jack Hawkins ... Major Warden
Sessue Hayakawa ... Colonel Saito
James Donald ... Major Clipton
Geoffrey Horne ... Lieutenant Joyce
André Morell ... Colonel Green (as Andre Morell)
Peter Williams ... Captain Reeves
John Boxer ... Major Hughes
Percy Herbert ... Grogan
Harold Goodwin ... Baker
Ann Sears ... Nurse
Heihachirô Ôkawa ... Captain Kanematsu (as Henry Okawa)
Keiichiro Katsumoto ... Lieutenant Miura (as K. Katsumoto)
M.R.B. Chakrabandhu ... Col. Broome Yai

SOURCE: the.bridge.on.the.river.kwai.1957.720p.hdtv.x264-hv.mkv

Notes: For best performance I suggest you to use KMPlayer(find it with google) for playback
These movies were made especially for PC and they don\'t play on a PS3.If you want to re-encode for PS3 or test for other devices be my guests.

related torrents

Torrent name

health leech seeds Size
 


comments (0)

Main Menu