Movies - Other

[Dhamal Rip] Ishqiya (2010) Upscaled DVD Rip [Dare DEvils] avi

  • Download Faster
  • Download torrent
  • Direct Download
  • Rate this torrent +  |  -
[Dhamal Rip] Ishqiya (2010) Upscaled DVD Rip [Dare DEvils] avi

Download Anonymously! Get Protected Today And Get your 70% discount


Torrent info

Name:[Dhamal Rip] Ishqiya (2010) Upscaled DVD Rip [Dare DEvils] avi

Infohash: 5EC6FC57DC50201E1A68911420F410894C50BBBE

Total Size: 1.33 GB

Seeds: 0

Leechers: 0

Stream: Watch Full Movie @ Movie4u

Last Updated: 2018-07-02 18:46:00 (Update Now)

Torrent added: 2010-03-04 06:06:36






Torrent Files List


[Dhamal Rip] Ishqiya (2010) Upscaled DVD Rip [Dare DEvils].avi (Size: 1.33 GB) (Files: 1)

 [Dhamal Rip] Ishqiya (2010) Upscaled DVD Rip [Dare DEvils].avi

1.33 GB
 

Announce URL:

Torrent description

Format : AVI
Format/Info : Audio Video Interleave
File size : 1.33 GiB
Duration : 1h 55mn
Overall bit rate : 1 639 Kbps

Video
ID : 0
Format : MPEG-4 Visual
Format profile : [email protected]
Format settings, BVOP : No
Format settings, QPel : No
Format settings, GMC : No warppoints
Format settings, Matrix : Default (H.263)
Codec ID : DX50
Codec ID/Hint : DivX 5
Duration : 1h 55mn
Bit rate : 1 500 Kbps
Width : 896 pixels
Height : 448 pixels
Display aspect ratio : 2.000
Frame rate : 23.976 fps
Resolution : 8 bits
Colorimetry : 4:2:0
Scan type : Progressive
Bits/(Pixel*Frame) : 0.156
Stream size : 1.21 GiB (92%)
Writing library : Lavc51.40.4

Audio
ID : 1
Format : AC-3
Format/Info : Audio Coding 3
Codec ID : 2000
Duration : 1h 55mn
Bit rate mode : Constant
Bit rate : 128 Kbps
Channel(s) : 6 channels
Channel positions : Front: L C R, Surround: L R, LFE
Sampling rate : 48.0 KHz
Resolution : 16 bits
Stream size : 106 MiB (8%)
Alignment : Aligned on interleaves
Interleave, duration : 32 ms (0.77 video frame)

related torrents

Torrent name

health leech seeds Size
 


comments (0)

Main Menu