Music Videos

Gorillaz Stylo Feat Bobby Womack & Mos Def [2010]Xvid Gangmie

  • Download Faster
  • Download torrent
  • Direct Download
  • Rate this torrent +  |  -
Gorillaz Stylo Feat Bobby Womack & Mos Def [2010]Xvid Gangmie

Download Anonymously! Get Protected Today And Get your 70% discount


Torrent info

Name:Gorillaz Stylo Feat Bobby Womack & Mos Def [2010]Xvid Gangmie

Infohash: 2FAA2155A34BAC007029E159215173D7DBF0E012

Total Size: 51.27 MB

Seeds: 0

Leechers: 0

Stream: Watch Full Movie @ Movie4u

Last Updated: 2015-09-01 06:34:58 (Update Now)

Torrent added: 2010-03-05 01:08:23






Torrent Files List


Gorillaz-Stylo Feat. Bobby Womack & Mos Def [2010]Xvid-Gangmie.avi (Size: 51.27 MB) (Files: 3)

 Gorillaz-Stylo Feat. Bobby Womack & Mos Def [2010]Xvid-Gangmie.avi

50.92 MB

 Gorillaz-Stylo Feat. Bobby Womack & Mos Def [2010]Xvid-Gangmie.avi_thumbs_[2010.03.05_12.58.42].jpg

349.87 KB

 Gorillaz-Stylo Feat. Bobby Womack & Mos Def [2010]Xvid-Gangmie.avi.txt

4.53 KB
 

tracker

leech seeds
 

Torrent description

General
Complete name : Gorillaz-Stylo Feat. Bobby Womack & Mos Def (2010)Gorillaz-Stylo Feat. Bobby Womack & Mos Def [2010]Xvid-Gangmie.avi
Format : AVI
Format/Info : Audio Video Interleave
File size : 50.9 MiB
Duration : 4mn 32s
Overall bit rate : 1 566 Kbps
Writing application : VirtualDubMod 1.5.4.1 (build 2178/release)
Writing library : VirtualDubMod build 2178/release

Video
ID : 0
Format : MPEG-4 Visual
Format profile : Advanced [email protected]
Format settings, BVOP : Yes
Format settings, QPel : No
Format settings, GMC : No warppoints
Format settings, Matrix : Custom
Codec ID : XVID
Codec ID/Hint : XviD
Duration : 4mn 32s
Bit rate : 1 367 Kbps
Width : 704 pixels
Height : 304 pixels
Display aspect ratio : 2.35:1
Frame rate : 25.000 fps
Resolution : 8 bits
Colorimetry : 4:2:0
Scan type : Progressive
Bits/(Pixel*Frame) : 0.255
Stream size : 44.4 MiB (87%)
Writing library : XviD 1.2.1 (UTC 2008-12-04)

Audio
ID : 1
Format : MPEG Audio
Format version : Version 1
Format profile : Layer 3
Format_Settings_Mode : Joint stereo
Format_Settings_ModeExtension : MS Stereo
Codec ID : 55
Codec ID/Hint : MP3
Duration : 4mn 32s
Bit rate mode : Constant
Bit rate : 192 Kbps
Channel(s) : 2 channels
Sampling rate : 48.0 KHz
Stream size : 6.24 MiB (12%)
Alignment : Aligned on interleaves
Interleave, duration : 80 ms (2.00 video frames)
Interleave, preload duration : 504 ms


Please seed please

related torrents

Torrent name

health leech seeds Size
 


comments (0)

Main Menu