Movies - Other

Der Himmel kann warten avi

  • Download Faster
  • Download torrent
  • Direct Download
  • Rate this torrent +  |  -
Der Himmel kann warten avi

Download Anonymously! Get Protected Today And Get your 70% discount


Torrent info

Name:Der Himmel kann warten avi

Infohash: 00CD5258D350403523EA565F3E79AB0B67EC6DC8

Total Size: 700.21 MB

Seeds: 0

Leechers: 0

Stream: Watch Full Movie @ Movie4u

Last Updated: 2020-11-02 20:42:07 (Update Now)

Torrent added: 2010-03-13 06:06:55






Torrent Files List


Der.Himmel.kann.warten.avi (Size: 700.21 MB) (Files: 1)

 Der.Himmel.kann.warten.avi

700.21 MB
 

Announce URL:

Torrent description

Regie: Brigitte Müller. Drama.


nur DEUTCH


***
MediaInfo



General
Complete name : E:TorrentDer.Himmel.kann.warten.avi
Format : AVI
Format/Info : Audio Video Interleave
File size : 700 MiB
Duration : 1h 34mn
Overall bit rate : 1 040 Kbps
Writing application : VirtualDubMod 1.5.10.2 (build 2540/release)
Writing library : VirtualDubMod build 2540/release

Video
ID : 0
Format : MPEG-4 Visual
Format profile : [email protected]
Format settings, BVOP : Yes
Format settings, QPel : No
Format settings, GMC : No warppoints
Format settings, Matrix : Default (H.263)
Muxing mode : Packed bitstream
Codec ID : XVID
Codec ID/Hint : XviD
Duration : 1h 34mn
Bit rate : 900 Kbps
Width : 512 pixels
Height : 288 pixels
Display aspect ratio : 16:9
Frame rate : 25.000 fps
Resolution : 24 bits
Colorimetry : 4:2:0
Scan type : Progressive
Bits/(Pixel*Frame) : 0.244
Stream size : 606 MiB (87%)
Writing library : XviD 1.0.3 (UTC 2004-12-20)

Audio
ID : 1
Format : MPEG Audio
Format version : Version 1
Format profile : Layer 3
Format_Settings_Mode : Joint stereo / MS Stereo
Codec ID : 55
Codec ID/Hint : MP3
Duration : 1h 34mn
Bit rate mode : Variable
Bit rate : 127 Kbps
Nominal bit rate : 128 Kbps
Channel(s) : 2 channels
Sampling rate : 48.0 KHz
Resolution : 16 bits
Stream size : 85.4 MiB (12%)
Alignment : Aligned on interleaves
Interleave, duration : 24 ms (0.60 video frame)
Interleave, preload duration : 145 ms
Writing library : LAME3.90.
Encoding settings : -m j -V 4 -q 2 -lowpass 17.6 --abr 128

related torrents

Torrent name

health leech seeds Size
 


comments (0)

Main Menu