Movies

Terminator Salvation 2009 R5 Dvdr (dvd5, Pal, Multisub) Crisgsm33 [www ilovetorrents com]

  • Download Faster
  • Download torrent
  • Direct Download
  • Rate this torrent +  |  -
Terminator Salvation 2009 R5 Dvdr (dvd5, Pal, Multisub) Crisgsm33 [www ilovetorrents com]

Download Anonymously! Get Protected Today And Get your 70% discount


Torrent info

Name:Terminator Salvation 2009 R5 Dvdr (dvd5, Pal, Multisub) Crisgsm33 [www ilovetorrents com]

Infohash: 0ABFB61A7146FC8E62BBC009A4F378E20A698575

Total Size: 2.00 GB

Seeds: 0

Leechers: 0

Stream: Watch Full Movie @ Movie4u

Last Updated: 2019-11-15 04:29:19 (Update Now)

Torrent added: 2009-09-14 10:40:01






Torrent Files List


 

tracker

leech seeds
 

Torrent description

14.09.2009









Terminator Salvation 2009 R5.DVDR (DVD5, PAL, Multisub) - crisgsm33







Release Date......:14/09/09

Theatre Date......:14/06/09

DVD Runtime.......:01:50:04

Language..........:English

IMDb URL..........:http://www.imdb.com/title/tt0438488/

IMDB Rating.......:7.3/10

Video Format......:PAL

Encoder...........:VSO SOFTWARE

Genre.............:Action, Sci-Fi

Size..............:4.69Gb

Subtitles.........:Multisub

Audio.............:English, Russian 5.1





- Release Notes -





SOURCE : Terminator Salvation 2009 - Original DVD9 R5





VIDEO : Re-Encoded, Filtered





Format : MPEG Video

Format version : Version 2

Format profile : [email protected]

Format settings, Matrix : Default

Duration : 01h 50m 04s

Bit rate mode : Variable

Bit rate : 4 640 Kbps

Nominal bit rate : 9 032 Kbps

Width : 720 pixels

Height : 576 pixels

Display aspect ratio : 16:9

Frame rate : 25.000 fps

Standard : PAL

Colorimetry : 4:2:0

Scan type : Progressive

Bits/(Pixel*Frame) : 0.448

Stream size : 3560 MiB (82%)







AUDIO : 1.English Re-Encoded, Re-Sincronized 5.1 Surround



2.Russian Original 5.1 Surround





Format : AC-3

Format/Info : Audio Coding 3

Duration : 1h 50m 04s

Bit rate mode : Constant

Bit rate : 448 Kbps

Channel(s) : 6 channels

Channel positions : Front: L C R, Surround: L R, LFE

Sampling rate : 48.0 KHz

Stream size : 353 MiB (100%)





SUBTITLES : Removed Russian Hardcoded Subtitle



Added : Albanian, Croatian, Danish, Dutch, English,

Finnish, French, Hungarian, Norwegian,

Portuguese, Romanian, Serbian, Slovenian,

Spanish, Swedish, Turkish.



MENU : Re-Authored





EXTRAS : None





http://www.imdb.com/title/tt0438488/



Christian Bale ... John Connor

Sam Worthington ... Marcus Wright

Moon Bloodgood ... Blair Williams

Helena Bonham Carter ... Dr. Serena Kogan









The End Begins







By crisgsm33