Movies - Other

Love Sex Aur Dhokha 2010 1CD DvDRip Team M2TV Gujju Rocker

  • Download Faster
  • Download torrent
  • Direct Download
  • Rate this torrent +  |  -
Love Sex Aur Dhokha 2010 1CD DvDRip Team M2TV Gujju Rocker

Download Anonymously! Get Protected Today And Get your 70% discount


Torrent info

Name:Love Sex Aur Dhokha 2010 1CD DvDRip Team M2TV Gujju Rocker

Infohash: B8E8347FCD563B4DF2643D29D7FD2CE3392F125D

Total Size: 694.86 MB

Seeds: 0

Leechers: 0

Stream: Watch Full Movie @ Movie4u

Last Updated: 0000-00-00 00:00:00 (Update Now)

Torrent added: 2010-03-31 05:06:33






Torrent Files List


Love Sex Aur Dhokha.avi (Size: 694.86 MB) (Files: 2)

 Love Sex Aur Dhokha.avi

681.57 MB

 Sample.avi

13.28 MB
 

Announce URL:

Torrent description

Mastitorrents.com
http://mastitorrents.com/forums/index.php

Complete name : Love Sex Aur Dhokha.2010.1CD DvDRip
Format : AVI
Format/Info : Audio Video Interleave
Format profile : OpenDML
File size : 682 MiB
Duration : 1h 48mn
Overall bit rate : 822Kbps

ID : 0
Format : MPEG-4
Format profile : Advanced [email protected]
Format settings, BVOP : Yes
Format settings, QPel : No
Format settings, GMC : No warppoints
Format settings, Matrix : Default (H.263)
Codec ID : XVID
Codec ID/Hint : XviD
Duration : 1h 48mn
Bit rate : 786 Kbps
Width : 608 pixels
Height : 304 pixels
Display aspect ratio : 2.000
Frame rate : 25.000 fps
Resolution : 8 bits
Colorimetry : 4:2:0
Scan type : Progressive
Bits/(Pixel*Frame) : 0.172
Stream size : 617 MiB (90%)

Format : MPEG Audio
Format version : Version 1
Format profile : Layer 3
Mode : Joint stereo
Format_Settings_ModeExtension : MS Stereo
Codec ID : 55
Codec ID/Hint : MP3
Duration : 1h 48mn
Bit rate mode : Constant
Bit rate : 80.0 Kbps
Channel(s) : 2 channels
Sampling rate : 32.0 KHz
Stream size : 62.2 MiB (9%)
Alignment : Aligned on interleaves
Interleave, duration : 854 ms (21.35 video frames)
Interleave, preload duration : 216 ms

Note Join Mastitorrents

related torrents

Torrent name

health leech seeds Size
 


comments (0)

Main Menu