Movies - Other

Cropsey LKRG

  • Download Faster
  • Download torrent
  • Direct Download
  • Rate this torrent +  |  -
Cropsey LKRG

Download Anonymously! Get Protected Today And Get your 70% discount


Torrent info

Name:Cropsey LKRG

Infohash: CE0949886906D6D749533576CBF11C51FA1958AE

Total Size: 705.18 MB

Seeds: 1

Leechers: 0

Stream: Watch Full Movie @ Movie4u

Last Updated: 2010-12-14 09:48:54 (Update Now)

Torrent added: 2010-06-03 14:36:07






Torrent Files List


info.txt (Size: 705.18 MB) (Files: 2)

 info.txt

1.33 KB

 Cropsey.LKRG.avi

705.18 MB
 

Announce URL: http://tracker.thepiratebay.org/announce

Torrent description

Format : AVI
Format/Info : Audio Video Interleave
Overall bit rate : 1 502 Kbps


Video
ID : 0
Format : MPEG-4 Visual
Format profile : AdvancedSimple[@]L5
Format settings, BVOP : Yes
Format settings, QPel : No
Format settings, GMC : No warppoints
Format settings, Matrix : Default (H.263)
Codec ID : XVID
Codec ID/Hint : XviD
Bit rate : 1 363 Kbps
Width : 608 pixels
Height : 256 pixels
Display aspect ratio : 2.35:1
Frame rate : 25.000 fps
Resolution : 24 bits
Colorimetry : 4:2:0
Scan type : Progressive
Bits/(Pixel*Frame) : 0.350
Stream size : 1.24 GiB (91%)
Writing library : XviD 1.2.1 (UTC 2008-12-04)

Audio
ID : 1
Format : MPEG Audio
Format version : Version 1
Format profile : Layer 3
Codec ID : 55
Codec ID/Hint : MP3
Duration : 2h 10mn
Bit rate mode : Variable
Bit rate : 128 Kbps
Channel(s) : 2 channels
Sampling rate : 48.0 KHz
Resolution : 16 bits
Stream size : 118 MiB (8%)
Alignment : Aligned on interleaves
Interleave, duration : 24 ms (0.60 video frame)
Interleave, preload duration : 231 ms

related torrents

Torrent name

health leech seeds Size

Cropsey Ts Xvid Imagine

0 1 710.00 MB 0
 


comments (0)

Main Menu