Movies - Other

The Sorcerers Apprentice (2010) DVDRip XviD FEEL-FREE

  • Download Faster
  • Download torrent
  • Direct Download
  • Rate this torrent +  |  -
The Sorcerers Apprentice (2010) DVDRip XviD FEEL-FREE

Download Anonymously! Get Protected Today And Get your 70% discount


Torrent info

Name:The Sorcerers Apprentice (2010) DVDRip XviD FEEL-FREE

Infohash: E0315A0937E3EECCF121170E7B2C5697AF51E95B

Total Size: 1.15 GB

Seeds: 3

Leechers: 3

Stream: Watch Full Movie @ Movie4u

Last Updated: 2010-11-09 01:02:43 (Update Now)

Torrent added: 2010-07-06 18:35:42






Torrent Files List


Important information about the subtitle files.txt (Size: 1.15 GB) (Files: 4)

 Important information about the subtitle files.txt

1.43 KB

 Information.nfo

1.66 KB

 The Sorcerers Apprentice (2010) DVDRip XviD.FEEL-FREE.avi

1.15 GB

 torrent Tracked By www.Extratorrent_com.txt

0.05 KB
 

Announce URL: http://tracker.thepiratebay.org/announce

Torrent description

General
Complete name : The Sorcerers Apprentice DvD
Format : AVI
Format/Info : Audio Video Interleave
Overall bit rate : 1 261 Kbps
Writing library : VirtualDub build 32706/release

Video
ID : 0
Format : MPEG-4 Visual
Format settings, BVOP : Yes
Format settings, QPel : No
Format settings, GMC : No warppoints
Format settings, Matrix : Default (H.263)
Codec ID : DX50
Codec ID/Hint : DivX 5
Duration : 1h 28mn
Bit rate : 1 123 Kbps
Width : 704 pixels
Height : 304 pixels
Display aspect ratio : 2.35:1
Frame rate : 25.000 fps
Resolution : 8 bits
Colorimetry : 4:2:0
Scan type : Progressive
Bits/(Pixel*Frame) : 0.210
Stream size : 713 MiB (89%)
Writing library : DivX 6.8.5 (UTC 2009-08-20)

Audio
ID : 1
Format : MPEG Audio
Format version : Version 1
Format profile : Layer 3
Mode : Joint stereo
Format_Settings_ModeExtension : MS Stereo
Codec ID : 55
Codec ID/Hint : MP3
Duration : 1h 28mn
Bit rate mode : Constant
Bit rate : 128 Kbps
Channel(s) : 2 channels
Sampling rate : 48.0 KHz
Stream size : 81.2 MiB (10%)
Alignment : Split accross interleaves
Interleave, duration : 40 ms (1.00 video frame)
Interleave, preload duration : 500 ms

PLOT:
Master sorcerer Balthazar Blake recruits a seemingly everyday guy in his mission to defend New York City from his arch-nemesis, Maxim Horvath.


CASTS:

Nicolas Cage ... Balthazar Blake

Alfred Molina ... Maxim Horvath

Monica Bellucci ... Veronica

Toby Kebbell ... Drake Stone

Jay Baruchel ... Dave Stutler


NOTES:
FOR MORE MOVIE INFO...... http://www.imdb.com/title/tt0963966/
RE-EDITED AND RE-SYNC FOR A BETTER QUALITY VERSION OF THE MOVIE...
THANKS AND ENJOY!




related torrents

Torrent name

health leech seeds Size
 


comments (0)

Main Menu