Movies - Other

THE A TEAM (2010) Extended BDrip [Eng-Hindi] Dual Audio(

  • Download Faster
  • Download torrent
  • Direct Download
  • Rate this torrent +  |  -
THE A TEAM (2010) Extended BDrip [Eng-Hindi] Dual Audio(

Download Anonymously! Get Protected Today And Get your 70% discount


Torrent info

Name:THE A TEAM (2010) Extended BDrip [Eng-Hindi] Dual Audio(

Infohash: CDD15DA06440A08B27CFCDB910169FB7575AD1D3

Total Size: 1.02 GB

Seeds: 0

Leechers: 0

Stream: Watch Full Movie @ Movie4u

Last Updated: 0000-00-00 00:00:00 (Update Now)

Torrent added: 2010-10-30 02:35:51






Torrent Files List


SAMPLE.mkv (Size: 1.02 GB) (Files: 3)

 SAMPLE.mkv

10.21 MB

 THE A TEAM (2010) Extended BDrip [Eng-Hindi] Dual Audio(www.mastitorrents.com).mkv

1.01 GB

 www.mastitorrents.com.txt

0.30 KB
 

Announce URL:

Torrent description

mastitorrents.com

http://mastitorrents.com/forums/index.php

General
Complete name : The A Team 2010 Original BDrip Dual Audio [Eng-Hindi].mkv
Format : Matroska
File size : 1.01 GiB
Duration : 2h 13mn


Video
ID : 2
Format : AVC
Format/Info : Advanced Video Codec
Format profile : [email protected]
Format settings, CABAC : Yes
Format settings, ReFrames : 5 frames
Muxing mode : Container [email protected]
Codec ID : V_MPEG4/ISO/AVC
Duration : 2h 13mn
Bit rate : 483 Kbps
Nominal bit rate : 520 Kbps
Width : 640 pixels
Height : 272 pixels
Display aspect ratio : 2.35:1
Frame rate : 23.976 fps
Resolution : 8 bits
Colorimetry : 4:2:0
Scan type : Progressive
Bits/(Pixel*Frame) : 0.116
Stream size : 462 MiB (45%)
Title : Encoded by N3O

Audio #1
ID : 1
Format : AC-3
Format/Info : Audio Coding 3
Format_Settings_ModeExtension : CM (complete main)
Codec ID : A_AC3
Duration : 2h 13mn
Bit rate mode : Constant
Bit rate : 128 Kbps
Channel(s) : 6 channels
Channel positions : Front: L C R, Side: L R, LFE
Sampling rate : 48.0 KHz
Stream size : 122 MiB (12%)
Title : English Audio by Arihant
Language : English

Audio #2
ID : 3
Format : AC-3
Format/Info : Audio Coding 3
Format_Settings_ModeExtension : CM (complete main)
Codec ID : A_AC3
Duration : 2h 13mn
Bit rate mode : Constant
Bit rate : 448 Kbps
Channel(s) : 2 channels
Channel positions : Front: L R
Sampling rate : 48.0 KHz
Video delay : 2s 0ms
Stream size : 428 MiB (41%)
Title : Hindi Audio by Arihant
Language : Hindi

Text
ID : 4
Format : UTF-8
Codec ID : S_TEXT/UTF8
Codec ID/Info : UTF-8 Plain Text
Title : Eng Subtitle
Language : English

related torrents

Torrent name

health leech seeds Size
 


comments (0)

Main Menu