Movies - Other

Thomas de Stoomlocomotief - Het straalvliegtuig (2010)(RETAIL) Hornigold TBS

  • Download Faster
  • Download torrent
  • Direct Download
  • Rate this torrent +  |  -
Thomas de Stoomlocomotief - Het straalvliegtuig (2010)(RETAIL) Hornigold TBS

Download Anonymously! Get Protected Today And Get your 70% discount


Torrent info

Name:Thomas de Stoomlocomotief - Het straalvliegtuig (2010)(RETAIL) Hornigold TBS

Infohash: 6723D7CBF976FAE8EE6B2E57B6AB8A74B5BF7E45

Total Size: 2.19 GB

Seeds: 16

Leechers: 5

Stream: Watch Full Movie @ Movie4u

Last Updated: 0000-00-00 00:00:00 (Update Now)

Torrent added: 2010-12-01 14:35:36






Torrent Files List


Het Straalvliegtuig (Size: 2.19 GB) (Files: 20)

 Het Straalvliegtuig

  VTS_03_2.VOB

1.00 GB

  VTS_03_1.VOB

1.00 GB

  VTS_03_3.VOB

178.11 MB

  VTS_01_1.VOB

7.02 MB

  VTS_02_1.VOB

5.69 MB

  VTS_01_0.VOB

1.94 MB

  VIDEO_TS.VOB

154.00 KB

  VTS_02_0.VOB

154.00 KB

  VTS_03_0.VOB

154.00 KB

  VTS_03_0.BUP

64.00 KB

  VTS_03_0.IFO

64.00 KB

  VTS_01_0.BUP

20.00 KB

  VTS_01_0.IFO

20.00 KB

  VIDEO_TS.IFO

18.00 KB

  VTS_02_0.BUP

18.00 KB

  VIDEO_TS.BUP

18.00 KB

  VTS_02_0.IFO

18.00 KB

 Info en Covers

  thomas en het straalvliegtuig Cover.jpg

2.07 MB

  thomas en het straalvliegtuig Label.jpg

486.10 KB

  Thomas - het straalvliegtuig.nfo

2.38 KB
 

Announce URL: http://exodus.1337x.org/announce

Torrent description

Vorige torrent is corrupt, deze is geheel gecontroleerd en goed!

Thomas de Stoomlocomotief - Het straalvliegtuig

Categorie: Beeld
Formaat: DVD5
Bron: Retail
Ondertitels: Geen
Genre : Animatie, kinderfilm.
Audio: Nederlands.

Het is zomer en op het eiland Sodor hebben ze een picknick georganiseerd. Thomas is naar het vliegveld gestuurd om een paar kinderen op te halen en daar ontmoet hij Jeremy ? straalvliegtuig, die op het punt van vertrekken staat. Door slecht weer komt Jeremy weer terug en hij waarschuwt Thomas. Is de picknick geruïneerd?

Video en Audio informatie:
******************************
Video
ID : 224 (0xE0)
Format : MPEG Video
Format version : Version 2
Format profile : [email protected]
Format settings, BVOP : Yes
Format settings, Matrix : Default
Format settings, GOP : M=2, N=14
Duration : 28mn 40s
Bit rate mode : Variable
Bit rate : 4 669 Kbps
Nominal bit rate : 8 000 Kbps
Width : 720 pixels
Height : 576 pixels
Display aspect ratio : 4:3
Frame rate : 25.000 fps
Standard : PAL
Color space : YUV
Chroma subsampling : 4:2:0
Bit depth : 8 bits
Scan type : Interlaced
Scan order : Top Field First
Bits/(Pixel*Frame) : 0.450
Stream size : 958 MiB (94%)

Audio
ID : 128 (0x80)
Format : AC-3
Format/Info : Audio Coding 3
Mode extension : CM (complete main)
Duration : 28mn 40s
Bit rate mode : Constant
Bit rate : 224 Kbps
Channel(s) : 2 channels
Channel positions : Front: L R
Sampling rate : 48.0 KHz
Bit depth : 16 bits
Video delay : -40ms
Stream size : 45.9 MiB (4%)

******************************

Black-Sam TBS

related torrents

Torrent name

health leech seeds Size
 


comments (0)

Main Menu