Movies - Other

Final Destination 3 2006 720p BRRiP Dual Audio Hindi Eng[Sub]--ChEtAn

  • Download Faster
  • Download torrent
  • Direct Download
  • Rate this torrent +  |  -
Final Destination 3 2006 720p BRRiP Dual Audio Hindi Eng[Sub]--ChEtAn

Download Anonymously! Get Protected Today And Get your 70% discount


Torrent info

Name:Final Destination 3 2006 720p BRRiP Dual Audio Hindi Eng[Sub]--ChEtAn

Infohash: DEF55251EBEBD750A4BA201AD1FFF541B576E9A0

Total Size: 704.45 MB

Seeds: 0

Leechers: 0

Stream: Watch Full Movie @ Movie4u

Last Updated: 2019-02-14 15:00:47 (Update Now)

Torrent added: 2011-01-05 09:35:26






Torrent Files List


Final Destination 3 2006 720p BRRiP Dual Audio Hindi Eng[Sub]--ChEtAn.mkv (Size: 704.45 MB) (Files: 6)

 Final Destination 3 2006 720p BRRiP Dual Audio Hindi Eng[Sub]--ChEtAn.mkv

698.18 MB

 Sample.mkv

6.18 MB

 Final Destination 3 2006 720p BRRiP Dual Audio Hindi Eng[Sub]--ChEtAn.srt

91.60 KB

 Torrent_downloaded_from_AhaShare.com.txt

0.06 KB

 Torrent_downloaded_from_Demonoid.com.txt

0.05 KB

 tracked_by_h33t_com.txt

0.02 KB
 

tracker

leech seeds
 

Torrent description

Language : Hindi, English

Subtitles : English

Cast:

Director : David R. Ellis

Writers : J. Mackye Gruber (screenplay), Eric Bress (screenplay)

[b]Stars : A.J. Cook, Ali Larter and Tony Todd

Genres : Horror | Thriller

Sample : Included

Plot :
Clear Rivers has been living life in a mental hospital after the bizarre events that lead to the deaths of her friends. One day, she is approached by a girl named Kimberly who believes she had a premonition similar to her friend Alex who died . Clear has to either risk her life helping others, or stay inside the hospital the rest of her life waiting for her death to come. What will she do?

Info:
General
Complete name : L:\\\\Final Destination 2 2003 720p BRRiP Dual Audio Hindi Eng[Sub]--ChEtAn.mkv
Format : Matroska
File size : 646 MiB
Duration : 1h 30mn
Overall bit rate : 1 002 Kbps
Encoded date : UTC 2010-12-14 15:26:31
Writing application : mkvmerge v4.3.0 (\\Escape from the Island\\) built on Sep 5 2010 10:30:51
Writing library : libebml v1.0.0 + libmatroska v1.0.0

Video
ID : 1
Format : AVC
Format/Info : Advanced Video Codec
Format profile : [email protected]
Format settings, CABAC : Yes
Format settings, ReFrames : 2 frames
Muxing mode : Header stripping
Codec ID : V_MPEG4/ISO/AVC
Duration : 1h 30mn
Bit rate : 816 Kbps
Width : 1 280 pixels
Height : 690 pixels
Display aspect ratio : 1.850
Frame rate : 19.181 fps
Color space : YUV
Chroma subsampling : 4:2:0
Bit depth : 8 bits
Scan type : Progressive
Bits/(Pixel*Frame) : 0.048
Stream size : 510 MiB (79%)
Writing library : x264 core 68 r1183M f21daff
Encoding settings : cabac=1 / ref=2 / deblock=1:0:0 / analyse=0x3:0x113 / me=hex / subme=4 / psy_rd=0.0:0.0 / mixed_ref=0 / me_range=16 / chroma_me=1 / trellis=1 / 8x8dct=1 / cqm=0 / deadzone=21,11 / chroma_qp_offset=0 / threads=6 / nr=0 / decimate=1 / mbaff=0 / bframes=3 / b_pyramid=0 / b_adapt=1 / b_bias=0 / direct=1 / wpredb=1 / keyint=250 / keyint_min=25 / scenecut=40 / rc=2pass / bitrate=816 / ratetol=1.0 / qcomp=0.60 / qpmin=10 / qpmax=51 / qpstep=4 / cplxblur=20.0 / qblur=0.5 / ip_ratio=1.40 / pb_ratio=1.30 / aq=1:1.00
Language : English

Audio #1
ID : 2
Format : AC-3
Format/Info : Audio Coding 3
Mode extension : CM (complete main)
Muxing mode : Header stripping
Codec ID : A_AC3
Duration : 1h 30mn
Bit rate mode : Constant
Bit rate : 64.0 Kbps
Channel(s) : 2 channels
Channel positions : Front: L R
Sampling rate : 48.0 KHz
Bit depth : 16 bits
Stream size : 41.3 MiB (6%)
Title : English--ChEtAn
Language : English

Audio #2
ID : 3
Format : MPEG Audio
Format version : Version 1
Format profile : Layer 3
Mode : Joint stereo
Muxing mode : Header stripping
Codec ID : A_MPEG/L3
Codec ID/Hint : MP3
Duration : 45mn 24s
Bit rate mode : Constant
Bit rate : 128 Kbps
Channel(s) : 2 channels
Sampling rate : 44.1 KHz
Video delay : 2s 0ms
Stream size : 41.6 MiB (6%)
Title : Hindi--ChEtAn
Writing library : LAME3.98r
Encoding settings : -m j -V 4 -q 2 -lowpass 17 -b 128
Language : Hindi

Text
ID : 4
Format : UTF-8
Codec ID : S_TEXT/UTF8
Codec ID/Info : UTF-8 Plain Text
Title : English--ChEtAn


Screenshots:
Final Destination 3 2006 720p BRRiP Dual Audio Hindi Eng[Sub]--ChEtAn preview 1
Final Destination 3 2006 720p BRRiP Dual Audio Hindi Eng[Sub]--ChEtAn preview 2
Final Destination 3 2006 720p BRRiP Dual Audio Hindi Eng[Sub]--ChEtAn preview 3
Final Destination 3 2006 720p BRRiP Dual Audio Hindi Eng[Sub]--ChEtAn preview 4
Final Destination 3 2006 720p BRRiP Dual Audio Hindi Eng[Sub]--ChEtAn preview 5
Final Destination 3 2006 720p BRRiP Dual Audio Hindi Eng[Sub]--ChEtAn preview 6
Final Destination 3 2006 720p BRRiP Dual Audio Hindi Eng[Sub]--ChEtAn preview 7
Final Destination 3 2006 720p BRRiP Dual Audio Hindi Eng[Sub]--ChEtAn preview 8
Final Destination 3 2006 720p BRRiP Dual Audio Hindi Eng[Sub]--ChEtAn preview 0

related torrents

Torrent name

health leech seeds Size
 


comments (0)

Main Menu