Movies - Other

The Hunted 1995 iNTERNAL DVDRip XviD-EXViDiNT

  • Download Faster
  • Download torrent
  • Direct Download
  • Rate this torrent +  |  -
The Hunted 1995 iNTERNAL DVDRip XviD-EXViDiNT

Download Anonymously! Get Protected Today And Get your 70% discount


Torrent info

Name:The Hunted 1995 iNTERNAL DVDRip XviD-EXViDiNT

Infohash: 97B0D8C1C2C62562CC32979E0FCA6833537A1B26

Total Size: 1.37 GB

Seeds: 0

Leechers: 1

Stream: Watch Full Movie @ Movie4u

Last Updated: 2021-07-16 17:11:34 (Update Now)

Torrent added: 2011-01-30 20:35:16






Torrent Files List


CD1 (Size: 1.37 GB) (Files: 7)

 CD1

  exvid-hunted-cd1.avi

699.47 MB

 CD2

  exvid-hunted-cd2.avi

700.05 MB

 exvid-hunted.nfo

7.98 KB

 OPEN and READ this before playing the Movie.txt

0.49 KB

 Subs

  exvid-hunted-cd1.idx

243.89 KB

  exvid-hunted-cd2.idx

233.85 KB

 www.Torrentday.com.txt

0.49 KB
 

Announce URL:

Torrent description

.

http://www.torrentday.com/ : The Hottest Private Tracker On The Net!!!

http://www.torrentday.com : Once For all ;)


www . TorrentDay . Com

(((((((((((((= Enjoy No RAR releases =))))))))))))))))))))


...................................NFO:....................................

.









EXVID



Filled the Archives



With:




E240

SP (C) 2009






The.Hunted.1995.iNTERNAL.DVDRip.XviD-EXViDiNT




EXViD aims to iNTERNAL those releases which have been lost in the archives.
EXViD aims to PRE non-internal releases which have poor sources and are likely skipped by others.

http://www.imdb.com/title/tt0113360/
Subtitles: EN, FR, PT, DK, FI, SV, NO, DE, NL, CZ, PL, TR, HU, BU, EN FD
Date: 2011.01

Director: J.F. Lawton

Genres:
Action | Drama | Thriller

Plot:
Paul is on one of his many business trips to Tokyo, as a computer-chip executive from New York,
when he meets a beautiful and mysterious woman. Later, he finds himself in the wrong place at
the wrong time, inadvertently interrupting an assassination by a feared Ninja-cult.
As he is now the only man to have seen the face of the cults warrior-leader and lived,
he soon realizes that he is facing a markedly foreshortened life-expectancy. Teaming up with
a friendly samurai couple, on a two-centuries-old blood-feud with the Ninja, he struggles
to survive. Finally, recuperating on an island-fortress, he learns swordsmanship, and perhaps,
a little about courage, honor, love, and loyalty. The requisite final confrontation is rife
with bloody swordplay and spectacular martial-arts action sequences.

Cast:
Credited cast:
Christopher Lambert ... Paul Racine
John Lone ... Kinjo
Joan Chen ... Kirina
Yoshio Harada ... Takeda Sensei
Yko Shimada ... Mieko Takeda
Mari Natsuki ... Junko
Tak Kubota ... Oshima
Masumi Okada ... Lt. Wadakura
Tatsuya Irie ... Hiryu
Michael Warren ... Chase
Bart Anderson ... John
James Saito ... Nemura
Seth Sakai ... Dr. Otozo Yamura
Toshir Obata ... Ryuma
Ken Kensei ... Sujin

Stats:
Format : AVI
Format/Info : Audio Video Interleave
File size : 1.37 GiB
Duration : 1h 45mn
Overall bit rate : 1 853 Kbps
Writing application : VirtualDubMod 1.5.10.2 (build 2540/release)
Writing library : VirtualDubMod build 2540/release

Video
ID : 0
Format : MPEG-4 Visual
Format profile : Advanced [email protected]
Format settings, BVOP : Yes
Format settings, QPel : No
Format settings, GMC : No warppoints
Format settings, Matrix : Default (H.263)
Muxing mode : Packed bitstream
Codec ID : XVID
Codec ID/Hint : XviD
Duration : 1h 45mn
Bit rate : 1 460 Kbps
Width : 624 pixels
Height : 336 pixels
Display aspect ratio : 1.857
Frame rate : 25.000 fps
Color space : YUV
Chroma subsampling : 4:2:0
Bit depth : 8 bits
Scan type : Progressive
Bits/(Pixel*Frame) : 0.278
Stream size : 1.08 GiB (79%)
Writing library : XviD 1.2.1 (UTC 2008-12-04)

Audio
ID : 1
Format : AC-3
Format/Info : Audio Coding 3
Mode extension : CM (complete main)
Codec ID : 2000
Duration : 1h 45mn
Bit rate mode : Constant
Bit rate : 384 Kbps
Channel(s) : 6 channels
Channel positions : Front: L C R, Side: L R, LFE
Sampling rate : 48.0 KHz
Bit depth : 16 bits
Stream size : 290 MiB (21%)
Alignment : Split accross interleaves
Interleave, duration : 40 ms (1.00 video frame)
Interleave, preload duration : 500 ms




Release notes:
Always liked this one.

Enjoy!

Looking for:
75TB+ Archives
DUTCH/FLEMiSH Archives

Greets: CRBS EPiSODE FiCO FLS iLS KLASSiGER LiPSYNC MADE NODLABS RUNNER TNAN


ASCII DONE BY XX^NFO 2oo9

related torrents

Torrent name

health leech seeds Size
 


comments (0)

Main Menu