Movies - Other

The Dilemma 2011 DVDRip-MXMG

  • Download Faster
  • Download torrent
  • Direct Download
  • Rate this torrent +  |  -
The Dilemma 2011 DVDRip-MXMG

Download Anonymously! Get Protected Today And Get your 70% discount


Torrent info

Name:The Dilemma 2011 DVDRip-MXMG

Infohash: BA459A34ED95FBC39090AE6B2737FA69B0724EBB

Total Size: 702.03 MB

Seeds: 271

Leechers: 91

Stream: Watch Full Movie @ Movie4u

Last Updated: 0000-00-00 00:00:00 (Update Now)

Torrent added: 2011-04-21 20:35:35






Torrent Files List


The Dilemma.avi (Size: 702.03 MB) (Files: 5)

 The Dilemma.avi

701.88 MB

 The Dilemma[subs]English.srt

142.33 KB

 MXMG.nfo

2.00 KB

 Torrent downloaded from Demonoid.me.txt

0.04 KB

 Torrent downloaded from Silvertorrents.me.txt

0.04 KB
 

Announce URL: http://inferno.demonoid.me:3419/announce

Torrent description

The Dilemma 2011 DVDRip-MXMG preview 1




The Dilemma 2011 DVDRip-MXMG preview 0

[quote]
Format : AVI
Format/Info : Audio Video Interleave
File size : 702 MiB
Duration : 1h 51mn
Overall bit rate : 880 Kbps
Writing application : VirtualDubMod 1.5.10.3 | www.virtualdub-fr.org || (build 2550/release)
Writing library : VirtualDubMod build 2550/release

Video
ID : 0
Format : MPEG-4 Visual
Format profile : Advanced [email protected]
Format settings, BVOP : 1
Format settings, QPel : No
Format settings, GMC : No warppoints
Format settings, Matrix : Default (H.263)
Codec ID : XVID
Codec ID/Hint : XviD
Duration : 1h 51mn
Bit rate : 743 Kbps
Width : 640 pixels
Height : 272 pixels
Display aspect ratio : 2.35:1
Frame rate : 23.976 fps
Color space : YUV
Chroma subsampling : 4:2:0
Bit depth : 8 bits
Scan type : Progressive
Compression mode : Lossy
Bits/(Pixel*Frame) : 0.178
Stream size : 592 MiB (84%)
Writing library : XviD 63

Audio
ID : 1
Format : MPEG Audio
Format version : Version 1
Format profile : Layer 3
Codec ID : 55
Codec ID/Hint : MP3
Duration : 1h 51mn
Bit rate mode : Constant
Bit rate : 128 Kbps
Channel(s) : 2 channels
Sampling rate : 48.0 KHz
Compression mode : Lossy
Stream size : 102 MiB (15%)
Alignment : Aligned on interleaves
Interleave, duration : 42 ms (1.00 video frame)
Interleave, preload duration : 504 ms
Writing library : LAME3.98r
Encoding settings : -m s -V 4 -q 2 -lowpass 17 -b 128
[/quote]


Screens :
The Dilemma 2011 DVDRip-MXMG preview 2

The Dilemma 2011 DVDRip-MXMG preview 3

The Dilemma 2011 DVDRip-MXMG preview 4

The Dilemma 2011 DVDRip-MXMG preview 5

The Dilemma 2011 DVDRip-MXMG preview 6

The Dilemma 2011 DVDRip-MXMG preview 7


[quote]
# Latest codecs used to deliver Top Quality Releases
# Seeded at high speeds to grant super Download speeds
# All DivX/XviD Players compatible and also PS3, Popcorn Hour, WD XBOX 360*
[/quote]

[code]
Seedboxes provided by http://www.chociz.com/
A seedbox is a private dedicated server used for the uploading and downloading of digital files.
Speed - You can sit back, relax and watch in amazement at how fast the torrents finish.
Secure and Safe - With a seedbox, you dont even need to use a BitTorrent client on your home computer!
Use Private Trackers - You can register @ Private Trackers and seed like Hell!

Get a Cheap Seedbox choosing for your taste - [url]http://www.chociz.com/whmcs/cart.php[/url]
[/code]

related torrents

Torrent name

health leech seeds Size
 


comments (0)

Main Menu