Movies - Other

Kung Fu Panda 2 2011 Pre-Release Cam XViD-Freebee

  • Download Faster
  • Download torrent
  • Direct Download
  • Rate this torrent +  |  -
Kung Fu Panda 2 2011 Pre-Release Cam XViD-Freebee

Download Anonymously! Get Protected Today And Get your 70% discount


Torrent info

Name:Kung Fu Panda 2 2011 Pre-Release Cam XViD-Freebee

Infohash: B03146002F3E68817D73C0F774D041F6526188F6

Total Size: 845.26 MB

Seeds: 0

Leechers: 4

Stream: Watch Full Movie @ Movie4u

Last Updated: 0000-00-00 00:00:00 (Update Now)

Torrent added: 2011-05-16 06:36:03






Torrent Files List


Kung Fu Panda 2 2011 Pre-Release Cam XViD-Freebee.avi (Size: 845.26 MB) (Files: 5)

 Kung Fu Panda 2 2011 Pre-Release Cam XViD-Freebee.avi

845.26 MB

 Movie Information.nfo

2.54 KB

 Torrent Downloaded and Tracked by www.Demonoid.com.txt

0.12 KB

 Torrent downloaded from AhaShare.com.txt

0.06 KB

 Torrent tracked and downloaded by www.torrentday.com.txt

0.08 KB
 

Announce URL: http://tracker.publicbt.com:80

Torrent description

Genre:Animation | Action | Adventure
Language:English
IMDb: http://www.imdb.com/title/tt1302011/
Source:IMAGINE Thanks!


Format : MPEG-4
Format profile : Base Media
Codec ID : isom
File size : 1.30 GiB
Duration : 1h 58mn
Overall bit rate : 1 571 Kbps


Video
Format profile : [email protected]
Format settings, CABAC : Yes
Format settings, ReFrames : 3 frames
Codec ID : avc1
Codec ID/Info : Advanced Video Coding
Duration : 1h 58mn
Bit rate mode : Variable
Bit rate : 1 340 Kbps
Maximum bit rate : 5 545 Kbps
Width : 640 pixels
Height : 392 pixels
Display aspect ratio : 1.633
Frame rate mode : Constant
Frame rate : 23.976 fps
Color space : YUV
Chroma subsampling : 4:2:0
Bit depth : 8 bits
Scan type : Progressive
Bits/(Pixel*Frame) : 0.223
Stream size : 1.11 GiB (86%)
Writing library : x264


Audio
ID : 2
Format : AAC
Format/Info : Advanced Audio Codec
Format version : Version 4
Format profile : LC
Format settings, SBR : No
Codec ID : 40
Duration : 1h 58mn
Bit rate mode : Variable
Bit rate : 224 Kbps
Maximum bit rate : 312 Kbps
Channel(s) : 2 channels
Channel positions : Front: L R
Sampling rate : 44.1 KHz
Stream size : 190 MiB (14%)



Plot:
Po joins forces with a group of new kung-fu masters to take on an old enemy with a deadly new weapon.


Greets:

INK,CRYS,IMAGINE,LKRG,FXG,3Li,FLAWL3SS,TA,iLLUSiON,ViSiON,DTRG SAFCuk009,LU,TheFalcon007,MYSTiC,PrisM,Noir,WBZ,LAP,Rx,Kingdom,SAFCuk009+Fabreezy,HDLiTE,TWiZTED,ExtraTorrentRG.ELEKTRI4KA,MAGNAT,CM8
And to all the other p2p grps past and present

How To Get Your Maxspeed (uTorrent)

Torrent Client - Preferences - Bandwidth - Number of connections - Set aprox. 500 for each
Torrent Client - Preferences - BiTorrent - Protocol Encryption - Forced
Bandwidth Allocation - High (Set download/upload limit - Unlimited)
Stop Other Active Torrents - Start downloading and wait for connections.
Enjoy and Seed for at least 1:1 ratio. Dont forget to say thanks/leave reviews.
Before downloading you should check/google search sample release namesample.
Greets to all actual/future p2p/scene QUALITY groups and affiliate websites.
Dont trust IMDb robot or bad ratings,always watch some trailers first.
Ignore stupid comments/fake/mislabeled/no-DVDrips/CAM/TS/RAR uploads.
Please spread this release/torrent to your friends/forums/etc.
If you need translation subs visit some subtitles sites.
Report if you see online streaming or other spam links.
Recommended movie player VLC PLAYER.

related torrents

Torrent name

health leech seeds Size

Kung Fu Panda [2011] En

0 0 657.39 MB 0
 


comments (0)

Main Menu