Movies - Other

Pirates of the Caribbean On Stranger Tides 2011 TS XviD-iLLUSiON

  • Download Faster
  • Download torrent
  • Direct Download
  • Rate this torrent +  |  -
Pirates of the Caribbean On Stranger Tides 2011 TS XviD-iLLUSiON

Download Anonymously! Get Protected Today And Get your 70% discount


Torrent info

Name: Pirates of the Caribbean On Stranger Tides 2011 TS XviD-iLLUSiON

Infohash: 2D595A896DC571ECB661D5E8F89A868F9C4A0314

Total Size: 1.23 GB

Seeds: 0

Leechers: 0

Stream: Watch Full Movie @ Movie4u

Last Updated: 2019-03-24 04:00:49 (Update Now)

Torrent added: 2011-05-23 16:35:50






Torrent Files List


After End Credits (Size: 1.23 GB) (Files: 8)

 After End Credits

  end.avi

4.59 MB

 Dark Sample.avi

7.61 MB

 NFO.nfo

10.17 KB

 Pirates.of.the.Caribbean.On.Stranger.Tides.2011.TS.XviD-iLLUSiON.avi

1.19 GB

 READ this before playing the Movie.txt

0.50 KB

 Sample.avi

26.80 MB

 www.TorrentDay.com.txt

0.20 KB

 www.Torrenting.com.txt

0.50 KB
 

Announce URL:

Torrent description

.

http://www.torrenting.com/ : Greatest Movie Tracker on The Net!!!

http://www.Torrenting.com : Once For all ;)


www . Torrenting . Com

(((((((((((((= Enjoy No RAR releases =))))))))))))))))))))


...................................NFO:....................................

.##################################################################
######## ## ##### ##### ### # # # # #### ################
########### ##### ##### ### # ####### ### # # ### ################
######## ## ##### ##### ### # # # ### # ## ## ################
######## ## ##### ##### ### ##### # # ### # ### # ################
######## ## ##### ##### ### ##### # # ### # #### ################
######## ## # # # # # # ##### ################
##################################################################
##################################################################

++++++++++++++++++++++++++++++++++++++++++++++++++++++++++++++++++
++++++++++++++++++++++++++++++++++++++++++++++++++++++++++++++++++
Presents

Pirates of the Caribbean On Stranger Tides 2011 TS XviD - iLLUSiON

++++++++++++++++++++++++++++++++++++++++++++++++++++++++++++++++++
++++++++++++++++++++++++++++++++++++++++++++++++++++++++++++++++++

Sources

Video: Piraty.Karibskogo.morya.4.D.TS

Audio:
Pirates.of.the.Caribbean.On.s.T.2011.TS.XViD.AC3.HQ.Hive-CM8

(THANKS)




Film Info


Plot: Jack Sparrow and Barbossa embark on a quest to find the
elusive fountain of youth, only to discover that Blackbeard
and his daughter are after it too.

IMDB Link: http://www.imdb.com/title/tt1298650/

IMDB Rating: 7.2

Trailer:






General Info


Size: 1.19GB

Format: AVI

Runtime: 2:07:13





Video Info

ID : 0
Format : MPEG-4 Visual
Format profile : Advanced [email protected]
Format settings, BVOP : 2
Format settings, QPel : No
Format settings, GMC : No warppoints
Format settings, Matrix : Default (H.263)
Muxing mode : Packed bitstream
Codec ID : XVID
Codec ID/Hint : XviD
Duration : 2h 7mn
Bit rate : 1 206 Kbps
Width : 720 pixels
Height : 280 pixels
Display aspect ratio : 2.571
Frame rate : 23.976 fps
Color space : YUV
Chroma subsampling : 4:2:0
Bit depth : 8 bits
Scan type : Progressive
Compression mode : Lossy
Bits/(Pixel*Frame) : 0.250
Stream size : 1.07 GiB (90%)
Writing library : XviD 58





Audio Info

ID : 1
Format : MPEG Audio
Format version : Version 1
Format profile : Layer 3
Mode : Joint stereo
Mode extension : MS Stereo
Codec ID : 55
Codec ID/Hint : MP3
Duration : 2h 7mn
Bit rate mode : Constant
Bit rate : 128 Kbps
Channel(s) : 2 channels
Sampling rate : 48.0 KHz
Compression mode : Lossy
Stream size : 116 MiB (10%)
Alignment : Aligned on interleaves
Interleave, duration : 42 ms (1.00 video frame)
Interleave, preload duration : 504 ms





__________________________________________________________________
__________________________________________________________________

Encoders Notes

Well, i cut the source into 30 parts i encoded each
part seperatley.
I tried to make the dark parts view-able keep the quality of
the daylight parts.
I didnt brighten the dark parts as much as some people did.
The film is set pre-electricity times candle light isnt great...
I also tried to keep the quality of the dark parts i think i
did in most of them.
The daylight parts where already fairly good, so i mostly
sharpned, changed the colors, added saturation sometimes
added contrast to them.
I watched it on my 52 TV via a PS3 it looks prety good,
although i wouldnt
realy advise you to watch a cam/ts on a tv bigger than 32.
The audio looked in sync threw out.
Ive included 2 samples, 1 of a daylight scene 1 of a
dark scene.
Here is a screenshot comparison beetween mine Hive-Cm8s.
http://screenshotcomparison.com/comparison/53689
Im sorry its realy late, but alot of time effort went into
it (just under 3 days!)
I did try include the final scene (after the end credits) but
when i made my scipt it said it had a different framerate.
( thats after i converted it from 25FPS to 23.976FPS)
So ive included it in a folder (for those that want it).
Enjoy...

__________________________________________________________________
__________________________________________________________________


I am looking for:
Cammers, Cams, Screeners (any type), Cam audio, Line audio,
Un-released R6s R5s R4s R2s R1s,
A Windows Server a syncer.
If you can provide any of these please
contact me at [email protected]



Greetz Respect:
ChattChitto RG, Hunter, iNK, DiNGiE, Recalled2Life,
Xclusive666, IFLIX, Demedic, ELEKTRI4KA, hiest, Feel-Free,
StoNerS, every uploader encoder out there.





Need a fast cheap seedbox?
Visit www.seedm8.com

There M.50 has:

100 GB Disk Space

.5GB Burst Bandwidth

10 MBiT (avg. 25 MBiT) Dedicated Bandwidth

No upload/download limit

All for $16 per month.

If thats not enougth check out there G.100
http://www.seedm8.com/g100/read-more





##################################################################
############## ## ##### ## ## ## ### ##############
############## ###### # #### ##### ##### ### ### # ###############
############## ###### ## ### ##### ##### ### #### ################
############## ## ### ## ##### ##### ### #### ################
############## ###### #### # ##### ##### ### #### ################
############## ###### ##### #### ###### ### #### ################
############## ## ###### ## ####### #### ################
##################################################################

related torrents

Torrent name

health leech seeds Size
 


comments (0)

Main Menu