Movies - Other

Madagascar 2005 BRrip Eng-Hindi[~HFR~]

  • Download Faster
  • Download torrent
  • Direct Download
  • Rate this torrent +  |  -
Madagascar 2005 BRrip Eng-Hindi[~HFR~]

Download Anonymously! Get Protected Today And Get your 70% discount


Torrent info

Name:Madagascar 2005 BRrip Eng-Hindi[~HFR~]

Infohash: 8942EF93C0275C84C68596EEE2638D75AFEFAE97

Total Size: 427.03 MB

Seeds: 0

Leechers: 0

Stream: Watch Full Movie @ Movie4u

Last Updated: 2014-01-13 07:57:31 (Update Now)

Torrent added: 2011-07-08 10:35:20






Torrent Files List


Madagascar 2005 BRrip [~HFR~].mkv (Size: 427.03 MB) (Files: 3)

 Madagascar 2005 BRrip [~HFR~].mkv

426.92 MB

 MADAGASCAR BLURAY.jpg

115.60 KB

 NFO.nfo

3.79 KB
 

Announce URL:

Torrent description

Madagascar 2005 BRrip Eng-Hindi[~HFR~] preview 0

Madagascar 2005 BRrip Eng-Hindi[~HFR~] preview 10
General
Complete name : Madagascar 2005 BRrip Eng-Hindi[~HFR~]
Format : Matroska
File size : 427 MiB
Duration : 1h 22mn
Overall bit rate : 724 Kbps

Video
ID : 1
Format : AVC
Format/Info : Advanced Video Codec
Format profile : [email protected]
Format settings, CABAC : Yes
Format settings, ReFrames : 4 frames
Muxing mode : Header stripping
Codec ID : V_MPEG4/ISO/AVC
Duration : 1h 22mn
Bit rate : 600 Kbps
Width : 666 pixels
Height : 352 pixels
Display aspect ratio : 1.892
Frame rate mode : Variable
Frame rate : 25.000 fps
Color space : YUV
Chroma subsampling : 4:2:0
Bit depth : 8 bits
Scan type : Progressive
Bits/(Pixel*Frame) : 0.102
Stream size : 343 MiB (80%)
Title : [~HFR~]
Language : English


Audio #1
ID : 2
Format : MPEG Audio
Format version : Version 2
Format profile : Layer 3
Mode : Joint stereo
Mode extension : MS Stereo
Muxing mode : Header stripping
Codec ID : A_MPEG/L3
Codec ID/Hint : MP3
Duration : 1h 22mn
Bit rate mode : Constant
Bit rate : 64.0 Kbps
Channel(s) : 2 channels
Sampling rate : 22.05 KHz
Stream size : 37.7 MiB (9%)
Title : [~HFR~]
Writing library : LAME3.98.2
Language : Hindi

Audio #2
ID : 3
Format : MPEG Audio
Format version : Version 2
Format profile : Layer 3
Mode : Joint stereo
Muxing mode : Header stripping
Codec ID : A_MPEG/L3
Codec ID/Hint : MP3
Duration : 1h 22mn
Bit rate mode : Constant
Bit rate : 64.0 Kbps
Channel(s) : 2 channels
Sampling rate : 22.05 KHz
Stream size : 37.7 MiB (9%)
Title : [~HFR~]
Writing library : LAME3.98.2ªªªªªªY“mþ
Language : English

Text
ID : 4
Format : UTF-8
Codec ID : S_TEXT/UTF8
Codec ID/Info : UTF-8 Plain Text
Title : [~HFR~]
Language : English

Madagascar 2005 BRrip Eng-Hindi[~HFR~] preview 11
At New York\'s Central Park Zoo, a lion, a zebra, a giraffe, and a hippo are best friends and stars of the show. But when one of the animals goes missing from their cage, the other three break free to look for him, only to find themselves reunited ... on a ship en route to Africa. When their vessel is hijacked, however, the friends, who have all been raised in captivity, learn first-hand what life can be like in the wild.

Madagascar 2005 BRrip Eng-Hindi[~HFR~] preview 12
[url]http://www.imdb.com/title/tt0351283/[/url]

Madagascar 2005 BRrip Eng-Hindi[~HFR~] preview 13
Directors: Eric Darnell, Tom McGrath
Writers: Mark Burton, Billy Frolick, and 2 more credits »
Stars: Chris Rock, Ben Stiller and David Schwimmer

Madagascar 2005 BRrip Eng-Hindi[~HFR~] preview 1
Budget: $75,000,000 (estimated)
Opening Weekend: ‚522,275 (Netherlands) (19 June 2005) (219 Screens)
Gross: $238,000,000 (Worldwide) (7 August 2005) (except USA)

Madagascar 2005 BRrip Eng-Hindi[~HFR~] preview 14
Madagascar 2005 BRrip Eng-Hindi[~HFR~] preview 2
Madagascar 2005 BRrip Eng-Hindi[~HFR~] preview 3
Madagascar 2005 BRrip Eng-Hindi[~HFR~] preview 4
Madagascar 2005 BRrip Eng-Hindi[~HFR~] preview 5
Madagascar 2005 BRrip Eng-Hindi[~HFR~] preview 6

Madagascar 2005 BRrip Eng-Hindi[~HFR~] preview 7
Madagascar 2005 BRrip Eng-Hindi[~HFR~] preview 8

Madagascar 2005 BRrip Eng-Hindi[~HFR~] preview 9

related torrents

Torrent name

health leech seeds Size
 


comments (0)

Main Menu