Movies - Other

The Uninvited 2009 BRRip Eng-Hindi[~HFR~]

  • Download Faster
  • Download torrent
  • Direct Download
  • Rate this torrent +  |  -
The Uninvited 2009 BRRip Eng-Hindi[~HFR~]

Download Anonymously! Get Protected Today And Get your 70% discount


Torrent info

Name:The Uninvited 2009 BRRip Eng-Hindi[~HFR~]

Infohash: C92F884B734B9AB0B250EBF346B28CE3A0DC68E4

Total Size: 393.38 MB

Seeds: 0

Leechers: 3

Stream: Watch Full Movie @ Movie4u

Last Updated: 0000-00-00 00:00:00 (Update Now)

Torrent added: 2011-07-19 13:35:10






Torrent Files List


The Uninvited 2009 BRRip Eng-Hindi[~HFR~].mkv (Size: 393.38 MB) (Files: 4)

 The Uninvited 2009 BRRip Eng-Hindi[~HFR~].mkv

390.34 MB

 Sample.mkv

3.00 MB

 bluRay.jpg

42.55 KB

 NFO.nfo

3.99 KB
 

Announce URL: http://tracker.ccc.de:80

Torrent description

The Uninvited 2009 BRRip Eng-Hindi[~HFR~] preview 0
The Uninvited 2009 BRRip Eng-Hindi[~HFR~] preview 10
General
Complete name : The Uninvited 2009 BRRip Eng-Hindi[~HFR~].mkv
Format : Matroska
File size : 390 MiB
Duration : 1h 27mn
Overall bit rate : 625 Kbps
Movie name : The Uninvited 2009 BRRip [~HFR~]

Video
ID : 1
Format : AVC
Format/Info : Advanced Video Codec
Format profile : [email protected]
Format settings, CABAC : Yes
Format settings, ReFrames : 4 frames
Muxing mode : Header stripping
Codec ID : V_MPEG4/ISO/AVC
Duration : 1h 27mn
Bit rate : 500 Kbps
Width : 720 pixels
Height : 400 pixels
Display aspect ratio : 16:9
Frame rate mode : Variable
Frame rate : 23.810 fps
Color space : YUV
Chroma subsampling : 4:2:0
Bit depth : 8 bits
Scan type : Progressive
Bits/(Pixel*Frame) : 0.073
Stream size : 303 MiB (78%)
Title : The Uninvited 2009 BRRip [~HFR~]
Language : English


Audio #1
ID : 3
Format : MPEG Audio
Format version : Version 2
Format profile : Layer 3
Mode : Joint stereo
Mode extension : MS Stereo
Muxing mode : Header stripping
Codec ID : A_MPEG/L3
Codec ID/Hint : MP3
Duration : 1h 27mn
Bit rate mode : Constant
Bit rate : 64.0 Kbps
Channel(s) : 2 channels
Sampling rate : 22.05 KHz
Stream size : 40.0 MiB (10%)
Title : The Uninvited 2009 BRRip [~HFR~]
Writing library : LAME3.98.2
Language : English

Audio #2
ID : 4
Format : MPEG Audio
Format version : Version 2
Format profile : Layer 3
Mode : Joint stereo
Mode extension : MS Stereo
Muxing mode : Header stripping
Codec ID : A_MPEG/L3
Codec ID/Hint : MP3
Duration : 1h 27mn
Bit rate mode : Constant
Bit rate : 64.0 Kbps
Channel(s) : 2 channels
Sampling rate : 22.05 KHz
Stream size : 40.0 MiB (10%)
Title : The Uninvited 2009 BRRip [~HFR~]
Writing library : LAME3.98.2
Language : Hindi

Text
ID : 2
Format : UTF-8
Codec ID : S_TEXT/UTF8
Codec ID/Info : UTF-8 Plain Text
Title : The Uninvited 2009 BRRip [~HFR~]
Language : English



The Uninvited 2009 BRRip Eng-Hindi[~HFR~] preview 11
After the death of her ill mother in a fire, the young teenager Anna tries to commit suicide and is sent to a mental institution for treatment. Ten months later, Anna still cannot remember what had happened on the night her mother died. Her psychiatric Dr. Silberling, however, discharges her telling that she has resolved her issues. Her father and successful writer, Steven, brings her back home in an isolated mansion nearby the coast. Anna finds that her mothers former nurse, Rachel Summers, is her stepmother now. Anna meets her beloved sister, Alex, swimming in the sea. She discovers that Steven has not delivered the letters and CDs that Alex had sent to her. As time moves on, Anna is haunted by ghosts and she believes that Rachel killed her mother. Alex and Anna decide to look for evidences to prove that Rachel is the murderer and Anna discovers the truth about the fire in the boat house.
The Uninvited 2009 BRRip Eng-Hindi[~HFR~] preview 12
[url]http://www.imdb.com/title/tt0815245/[/url]

The Uninvited 2009 BRRip Eng-Hindi[~HFR~] preview 13
Directors: Charles Guard, Thomas Guard
Writers: Craig Rosenberg (screenplay), Doug Miro (screenplay), and 2 more credits
Stars: Emily Browning, Arielle Kebbel and Elizabeth Banks
The Uninvited 2009 BRRip Eng-Hindi[~HFR~] preview 1
Opening Weekend: $10,325,824 (USA) (1 February 2009) (2344 Screens)
Gross: $28,573,173 (USA) (29 March 2009)
The Uninvited 2009 BRRip Eng-Hindi[~HFR~] preview 14
The Uninvited 2009 BRRip Eng-Hindi[~HFR~] preview 2
The Uninvited 2009 BRRip Eng-Hindi[~HFR~] preview 3
The Uninvited 2009 BRRip Eng-Hindi[~HFR~] preview 4
The Uninvited 2009 BRRip Eng-Hindi[~HFR~] preview 5
The Uninvited 2009 BRRip Eng-Hindi[~HFR~] preview 6

The Uninvited 2009 BRRip Eng-Hindi[~HFR~] preview 7
The Uninvited 2009 BRRip Eng-Hindi[~HFR~] preview 8

The Uninvited 2009 BRRip Eng-Hindi[~HFR~] preview 9

related torrents

Torrent name

health leech seeds Size
 


comments (0)

Main Menu