Movies - Other

So You Wanna Be A Rock Star 2008 DVDRip XViD-SPRiNTER

  • Download Faster
  • Download torrent
  • Direct Download
  • Rate this torrent +  |  -
So You Wanna Be A Rock Star 2008 DVDRip XViD-SPRiNTER

Download Anonymously! Get Protected Today And Get your 70% discount


Torrent info

Name: So You Wanna Be A Rock Star 2008 DVDRip XViD-SPRiNTER

Infohash: 542A808874FD273EC592945B92D0F2879E62DE27

Total Size: 713.90 MB

Seeds: 0

Leechers: 1

Stream: Watch Full Movie @ Movie4u

Last Updated: 2021-12-31 17:28:14 (Update Now)

Torrent added: 2011-07-24 04:35:12






Torrent Files List


READ this before playing the Movie.txt (Size: 713.90 MB) (Files: 5)

 READ this before playing the Movie.txt

0.50 KB

 Sample

  sprinter-xvid-sywbar-sample.avi

13.99 MB

 sprinter-xvid-sywbar.avi

699.90 MB

 sprinter-xvid-sywbar.nfo

6.46 KB

 www.Torrenting.com.txt

0.50 KB
 

Announce URL:

Torrent description

.

http://www.torrenting.com/ : Greatest Movie Tracker on The Net!!!

http://www.Torrenting.com : Once For all ;)


www . Torrenting . Com

(((((((((((((= Enjoy No RAR releases =))))))))))))))))))))


...................................NFO:....................................

.































ARTiCHOKE
























SPRiNTER proudly presents...



So.You.Wanna.Be.A.Rock.Star.2008.DVDRip.XViD-SPRiNTER http://kidrockproductions.com/page1.html


Date: 2011.07





Release notes





Enjoy ?




Greetings




NTX FiCO HNR CiNEFiLE AEN HUMANiSM TASTE 0MNiDVD




Details



Format : AVI
Format/Info : Audio Video Interleave
File size : 700 MiB
Duration : 55mn 36s
Overall bit rate : 1 760 Kbps
Writing application : Nandub v1.0rc2
Writing library : Nandub build 1853/release

Video
ID : 0
Format : MPEG-4 Visual
Format profile : Advanced [email protected]
Format settings, BVOP : No
Format settings, QPel : No
Format settings, GMC : No warppoints
Format settings, Matrix : Default (H.263)
Codec ID : XVID
Codec ID/Hint : XviD
Duration : 55mn 36s
Bit rate : 1 605 Kbps
Width : 576 pixels
Height : 320 pixels
Display aspect ratio : 16:9
Frame rate : 25.000 fps
Color space : YUV
Chroma subsampling : 4:2:0
Bit depth : 8 bits
Scan type : Progressive
Compression mode : Lossy
Bits/(Pixel*Frame) : 0.348
Stream size : 638 MiB (91%)
Writing library : XviD 61

Audio
ID : 1
Format : MPEG Audio
Format version : Version 1
Format profile : Layer 3
Codec ID : 55
Codec ID/Hint : MP3
Duration : 55mn 36s
Bit rate mode : Variable
Bit rate : 141 Kbps
Channel(s) : 2 channels
Sampling rate : 48.0 KHz
Compression mode : Lossy
Stream size : 56.3 MiB (8%)
Alignment : Aligned on interleaves
Interleave, duration : 24 ms (0.60 video frame)
Interleave, preload duration : 124 ms
Writing library : LAME3.89 (alpha)

related torrents

Torrent name

health leech seeds Size
 


comments (0)

Main Menu