Movies - Other

Road To Nowhere 2010 BDRip XVID AC3 HQ Hive-CM8

  • Download Faster
  • Download torrent
  • Direct Download
  • Rate this torrent +  |  -
Road To Nowhere 2010 BDRip XVID AC3 HQ Hive-CM8

Download Anonymously! Get Protected Today And Get your 70% discount


Torrent info

Name: Road To Nowhere 2010 BDRip XVID AC3 HQ Hive-CM8

Infohash: 057E58C7A4BA2AB6E32566F38D8611A475BBDE25

Total Size: 1.71 GB

Seeds: 0

Leechers: 0

Stream: Watch Full Movie @ Movie4u

Last Updated: 2015-07-28 04:58:56 (Update Now)

Torrent added: 2011-08-10 00:35:03






Torrent Files List


Road.To.Nowhere.2010.BDRip.XVID.AC3.HQ.Hive-CM8.avi (Size: 1.71 GB) (Files: 5)

 Road.To.Nowhere.2010.BDRip.XVID.AC3.HQ.Hive-CM8.avi

1.70 GB

 Road.To.Nowhere.2010.BDRip.XVID.AC3.HQ.Hive-CM8.nfo

3.69 KB

 sample.avi

6.70 MB

 Speed.cd read me .txt

0.05 KB

 www.Speed.Cd.txt

0.05 KB
 

tracker

leech seeds
 

Torrent description

-
http://www.Speed.Cd

http://www.Speed.Cd fast and The Hottest Private Tracker on the net

(((--Registration will be open on june every weekend--)))

Please Seed back to make the speed Faster!!!

------------------nfo--------------------------
- Road To Nowhere 2010 BDRip XVID AC3 HQ Hive-CM8 preview 0


[color=blue][size=5][b]Road.To.Nowhere.2010.BDRip.XVID.AC3.HQ.Hive-CM8[/b][/size][/color]


[b]Thx Hive

CM8 Doing It Right The First Time :D


Source: Bluray

Video: 720x400 @bitrate 1600 2pass
Audio: English DTS to AC3 5.1 @384
Sample: yes included[/b]


[url]http://www.imdb.com/title/tt1504319/[/url]


General
Complete name : Road.To.Nowhere.2010.BDRip.XVID.AC3.HQ.Hive-CM8.avi
Format : AVI
Format/Info : Audio Video Interleave
File size : 1.70 GiB
Duration : 2h 1mn
Overall bit rate : 2 004 Kbps
Writing application : Nandub v1.0rc2
Writing library : Nandub build 1853/release

Video
ID : 0
Format : MPEG-4 Visual
Format profile : Advanced [email protected]
Format settings, BVOP : 1
Format settings, QPel : Yes
Format settings, GMC : No warppoints
Format settings, Matrix : Default (H.263)
Muxing mode : Packed bitstream
Codec ID : XVID
Codec ID/Hint : XviD
Duration : 2h 1mn
Bit rate : 1 610 Kbps
Width : 720 pixels
Height : 400 pixels
Display aspect ratio : 16:9
Frame rate : 23.976 fps
Color space : YUV
Chroma subsampling : 4:2:0
Bit depth : 8 bits
Scan type : Progressive
Compression mode : Lossy
Bits/(Pixel*Frame) : 0.233
Stream size : 1.37 GiB (80%)
Writing library : XviD 1.2.1 (UTC 2008-12-04)

Audio
ID : 1
Format : AC-3
Format/Info : Audio Coding 3
Mode extension : CM (complete main)
Codec ID : 2000
Duration : 2h 1mn
Bit rate mode : Constant
Bit rate : 384 Kbps
Channel(s) : 6 channels
Channel positions : Front: L C R, Side: L R, LFE
Sampling rate : 48.0 KHz
Bit depth : 16 bits
Compression mode : Lossy
Stream size : 334 MiB (19%)
Alignment : Split accross interleaves
Interleave, duration : 42 ms (1.00 video frame)
Interleave, preload duration : 500 ms


Plot:
A young filmmaker gets wrapped up in a crime while shooting his new project on location.


Cast:
Shannyn Sossamon
Tygh Runyan ... Mitchell Haven
Cliff De Young ... Cary Stewart \\ Rafe Tachen
Waylon Payne ... Bruno Brotherton
Dominique Swain ... Nathalie Post


 Road To Nowhere 2010 BDRip XVID AC3 HQ Hive-CM8 preview 1
 Road To Nowhere 2010 BDRip XVID AC3 HQ Hive-CM8 preview 2
 Road To Nowhere 2010 BDRip XVID AC3 HQ Hive-CM8 preview 3
 Road To Nowhere 2010 BDRip XVID AC3 HQ Hive-CM8 preview 4
 Road To Nowhere 2010 BDRip XVID AC3 HQ Hive-CM8 preview 5
 Road To Nowhere 2010 BDRip XVID AC3 HQ Hive-CM8 preview 6
 Road To Nowhere 2010 BDRip XVID AC3 HQ Hive-CM8 preview 7



Greetz

ViSiON,SiC,SANTi,3LT0N,YanKeeS,MAGNET,THC,T0XiC,LKRG,FANTASIA-PLAY,FANTASIA-M,BHRG,WBZ
D2U,IMAGiNE,FLAWL3SS,NOVA,Vik,Rapeseed,SAFC,goldadvance,MEMORY100,scumbag,Hero5,Pinnz
Unevano,KaN1vE,Wayne,cedrict wink,Mr Hive and all P2P groups
Great Work Guys :D

FYS

[email protected]

related torrents

Torrent name

health leech seeds Size
 


comments (0)

Main Menu