Movies - Other

The Adventures of Tintin The Secret of the Unicorn 2011 CAM XViD - U S M

  • Download Faster
  • Download torrent
  • Direct Download
  • Rate this torrent +  |  -
The Adventures of Tintin The Secret of the Unicorn 2011 CAM XViD - U S M

Download Anonymously! Get Protected Today And Get your 70% discount


Torrent info

Name: The Adventures of Tintin The Secret of the Unicorn 2011 CAM XViD - U S M

Infohash: 1A03567DA832741A3180BF005884750C0FE0F290

Total Size: 1.40 GB

Seeds: 0

Leechers: 6

Stream: Watch Full Movie @ Movie4u

Last Updated: 0000-00-00 00:00:00 (Update Now)

Torrent added: 2011-11-10 23:35:12






Torrent Files List


SAMPLE.avi (Size: 1.40 GB) (Files: 104)

 SAMPLE.avi

25.82 MB

 SAMPLE.sfv

6.25 KB

 Speed.cd read me .txt

0.05 KB

 The Adventures of Tintin The Secret of the Unicorn 2011 CAM XViD - U.S.M.nfo

4.31 KB

 TT.r00

14.31 MB

 TT.r01

14.31 MB

 TT.r02

14.31 MB

 TT.r03

14.31 MB

 TT.r04

14.31 MB

 TT.r05

14.31 MB

 TT.r06

14.31 MB

 TT.r07

14.31 MB

 TT.r08

14.31 MB

 TT.r09

14.31 MB

 TT.r10

14.31 MB

 TT.r11

14.31 MB

 TT.r12

14.31 MB

 TT.r13

14.31 MB

 TT.r14

14.31 MB

 TT.r15

14.31 MB

 TT.r16

14.31 MB

 TT.r17

14.31 MB

 TT.r18

14.31 MB

 TT.r19

14.31 MB

 TT.r20

14.31 MB

 TT.r21

14.31 MB

 TT.r22

14.31 MB

 TT.r23

14.31 MB

 TT.r24

14.31 MB

 TT.r25

14.31 MB

 TT.r26

14.31 MB

 TT.r27

14.31 MB

 TT.r28

14.31 MB

 TT.r29

14.31 MB

 TT.r30

14.31 MB

 TT.r31

14.31 MB

 TT.r32

14.31 MB

 TT.r33

14.31 MB

 TT.r34

14.31 MB

 TT.r35

14.31 MB

 TT.r36

14.31 MB

 TT.r37

14.31 MB

 TT.r38

14.31 MB

 TT.r39

14.31 MB

 TT.r40

14.31 MB

 TT.r41

14.31 MB

 TT.r42

14.31 MB

 TT.r43

14.31 MB

 TT.r44

14.31 MB

 TT.r45

14.31 MB

 TT.r46

14.31 MB

 TT.r47

14.31 MB

 TT.r48

14.31 MB

 TT.r49

14.31 MB

 TT.r50

14.31 MB

 TT.r51

14.31 MB

 TT.r52

14.31 MB

 TT.r53

14.31 MB

 TT.r54

14.31 MB

 TT.r55

14.31 MB

 TT.r56

14.31 MB

 TT.r57

14.31 MB

 TT.r58

14.31 MB

 TT.r59

14.31 MB

 TT.r60

14.31 MB

 TT.r61

14.31 MB

 TT.r62

14.31 MB

 TT.r63

14.31 MB

 TT.r64

14.31 MB

 TT.r65

14.31 MB

 TT.r66

14.31 MB

 TT.r67

14.31 MB

 TT.r68

14.31 MB

 TT.r69

14.31 MB

 TT.r70

14.31 MB

 TT.r71

14.31 MB

 TT.r72

14.31 MB

 TT.r73

14.31 MB

 TT.r74

14.31 MB

 TT.r75

14.31 MB

 TT.r76

14.31 MB

 TT.r77

14.31 MB

 TT.r78

14.31 MB

 TT.r79

14.31 MB

 TT.r80

14.31 MB

 TT.r81

14.31 MB

 TT.r82

14.31 MB

 TT.r83

14.31 MB

 TT.r84

14.31 MB

 TT.r85

14.31 MB

 TT.r86

14.31 MB

 TT.r87

14.31 MB

 TT.r88

14.31 MB

 TT.r89

14.31 MB

 TT.r90

14.31 MB

 TT.r91

14.31 MB

 TT.r92

14.31 MB

 TT.r93

14.31 MB

 TT.r94

14.31 MB

 TT.r95

14.31 MB

 TT.r96

14.31 MB

 TT.r97

9.75 MB

 TT.rar

14.31 MB

 www.Speed.Cd.txt

0.05 KB
 

Announce URL: http://tracker.ccc.de:80

Torrent description

-
http://www.Speed.Cd fast and The Hottest Private Tracker on the net

signup is open now

Please Seed back to make the speed Faster!!!

------------------nfo--------------------------
-UUUUUUUU UUUUUUUU SSSSSSSSSSSSSSS MMMMMMMM MMMMMMMM
U::::::U U::::::U SS:::::::::::::::S M:::::::M M:::::::M
U::::::U U::::::U S:::::SSSSSS::::::S M::::::::M M::::::::M
UU:::::U U:::::UU S:::::S SSSSSSS M:::::::::M M:::::::::M
U:::::U U:::::U S:::::S M::::::::::M M::::::::::M
U:::::D D:::::U S:::::S M:::::::::::M M:::::::::::M
U:::::D D:::::U S::::SSSS M:::::::M::::M M::::M:::::::M
U:::::D D:::::U SS::::::SSSSS M::::::M M::::M M::::M M::::::M
U:::::D D:::::U SSS::::::::SS M::::::M M::::M::::M M::::::M
U:::::D D:::::U SSSSSS::::S M::::::M M:::::::M M::::::M
U:::::D D:::::U S:::::S M::::::M M:::::M M::::::M
U::::::U U::::::U S:::::S M::::::M MMMMM M::::::M
U:::::::UUU:::::::U SSSSSSS S:::::S M::::::M M::::::M
UU:::::::::::::UU ...... S::::::SSSSSS:::::S ...... M::::::M M::::::M
UU:::::::::UU .::::. S:::::::::::::::SS .::::. M::::::M M::::::M
UUUUUUUUU ...... SSSSSSSSSSSSSSS ...... MMMMMMMM MMMMMMMM



The Adventures of Tintin The Secret of the Unicorn 2011 CAM XViD - U.S.M


SOURCES:

TNZ 720p files :D
ILLUMINATI

IMDB:

http://www.imdb.com/title/tt0983193/

Video
ID : 0
Format : MPEG-4 Visual
Format profile : Advanced [email protected]
Format settings, BVOP : 2
Format settings, QPel : No
Format settings, GMC : No warppoints
Format settings, Matrix : Default (MPEG)
Muxing mode : Packed bitstream
Codec ID : XVID
Codec ID/Hint : XviD
Duration : 1h 39mn
Bit rate : 1 844 Kbps
Width : 720 pixels
Height : 304 pixels
Display aspect ratio : 2.35:1
Frame rate : 25.000 fps
Color space : YUV
Chroma subsampling : 4:2:0
Bit depth : 8 bits
Scan type : Progressive
Compression mode : Lossy
Bits/(Pixel*Frame) : 0.337
Stream size : 1.28 GiB (93%)
Writing library : XviD 64

Audio
ID : 1
Format : MPEG Audio
Format version : Version 1
Format profile : Layer 3
Mode : Joint stereo
Mode extension : MS Stereo
Codec ID : 55
Codec ID/Hint : MP3
Duration : 1h 39mn
Bit rate mode : Constant
Bit rate : 128 Kbps
Channel(s) : 2 channels
Sampling rate : 44.1 KHz
Compression mode : Lossy
Stream size : 91.2 MiB (6%)
Alignment : Split accross interleaves
Interleave, duration : 40 ms (1.00 video frame)
Interleave, preload duration : 500 ms
Writing library : LAME3.98r
Encoding settings : -m j -V 4 -q 2 -lowpass 17 -b 128


WORKDONE:

Ok first off all syncing and the actual cam audio was down too goods friends,so many thanks ;-)
The video we were given tnzs 720p cam,which was very nice and i see its what the russians used for
their 2 releases of tin tin.
Anyway the cam needed some tweaks here and there for the brightness,contrast and sharpness ...also needed
to be resized and have a heavy video noise filter ran over it aswell.
Once done just a case of muxing the audio over the encode and hey presto.

SCREENIES:

 The Adventures of Tintin The Secret of the Unicorn 2011 CAM XViD - U S M preview 0
 The Adventures of Tintin The Secret of the Unicorn 2011 CAM XViD - U S M preview 1
 The Adventures of Tintin The Secret of the Unicorn 2011 CAM XViD - U S M preview 2
 The Adventures of Tintin The Secret of the Unicorn 2011 CAM XViD - U S M preview 3

related torrents

Torrent name

health leech seeds Size
 


comments (0)

Main Menu