Movies - Other

Perfect Sense 2011 DVDRip R5 x264 AC3-SSN

  • Download Faster
  • Download torrent
  • Direct Download
  • Rate this torrent +  |  -
Perfect Sense 2011 DVDRip R5 x264 AC3-SSN

Download Anonymously! Get Protected Today And Get your 70% discount


Torrent info

Name: Perfect Sense 2011 DVDRip R5 x264 AC3-SSN

Infohash: EA70BC8F067E4AA80F3FB0B415DF32075FE4BAA5

Total Size: 0.99 GB

Seeds: 0

Leechers: 0

Stream: Watch Full Movie @ Movie4u

Last Updated: 0000-00-00 00:00:00 (Update Now)

Torrent added: 2011-12-16 14:35:08






Torrent Files List


 

Announce URL: http://tracker.thepiratebay.org/announce

Torrent description

.

http://www.torrenting.com : Once For all ;)


www . Torrenting . Com

(((((((((((((= Enjoy No RAR releases =))))))))))))))))))))


...................................NFO:....................................

.General
Unique ID : 218067573756411757363788977037102913285 (0xA40E497A2015383B9B6B6F36E5619705)
Complete name : Perfect Sense 2011 DVDRip R5 x264 AC3-SSN.mkv
Format : Matroska
Format version : Version 2
File size : 1 014 MiB
Duration : 1h 28mn
Overall bit rate : 1 603 Kbps
Encoded date : UTC 2011-12-16 12:45:39
Writing application : mkvmerge v5.1.0 (And so it goes) built on Nov 28 2011 23:58:28
Writing library : libebml v1.2.3 + libmatroska v1.3.0

Video
ID : 1
Format : AVC
Format/Info : Advanced Video Codec
Format profile : [email protected]
Format settings, CABAC : Yes
Format settings, ReFrames : 5 frames
Codec ID : V_MPEG4/ISO/AVC
Duration : 1h 28mn
Bit rate : 1 345 Kbps
Width : 706 pixels
Height : 362 pixels
Display aspect ratio : 2.35:1
Frame rate : 23.976 fps
Color space : YUV
Chroma subsampling : 4:2:0
Bit depth : 8 bits
Scan type : Progressive
Bits/(Pixel*Frame) : 0.219
Stream size : 832 MiB (82%)
Writing library : x264 core 120 r2120 0c7dab9
Encoding settings : cabac=1 / ref=5 / deblock=1:0:0 / analyse=0x3:0x113 / me=umh / subme=9 / psy=1 / psy_rd=1.00:0.00 / mixed_ref=1 / me_range=16 / chroma_me=1 / trellis=0 / 8x8dct=1 / cqm=0 / deadzone=21,11 / fast_pskip=1 / chroma_qp_offset=-2 / threads=6 / sliced_threads=0 / nr=0 / decimate=1 / interlaced=0 / bluray_compat=0 / constrained_intra=0 / bframes=5 / b_pyramid=2 / b_adapt=2 / b_bias=0 / direct=3 / weightb=1 / open_gop=1 / weightp=2 / keyint=250 / keyint_min=23 / scenecut=40 / intra_refresh=0 / rc_lookahead=50 / rc=2pass / mbtree=1 / bitrate=1345 / ratetol=2.0 / qcomp=0.60 / qpmin=10 / qpmax=35 / qpstep=4 / cplxblur=20.0 / qblur=0.5 / vbv_maxrate=50000 / vbv_bufsize=50000 / nal_hrd=none / ip_ratio=1.40 / aq=1:1.00
Language : English
Default : Yes
Forced : No

Audio
ID : 2
Format : AC-3
Format/Info : Audio Coding 3
Mode extension : CM (complete main)
Codec ID : A_AC3
Duration : 1h 28mn
Bit rate mode : Constant
Bit rate : 256 Kbps
Channel(s) : 6 channels
Channel positions : Front: L C R, Side: L R, LFE
Sampling rate : 48.0 KHz
Bit depth : 16 bits
Compression mode : Lossy
Stream size : 162 MiB (16%)
Default : Yes
Forced : No

related torrents

Torrent name

health leech seeds Size
 


comments (0)

Main Menu