Black Label Society - Hangover Music Vol VI - CD remaster by MC Lurken 24-bit 96kHz flac

  • Download Faster
  • Download torrent
  • Direct Download
  • Rate this torrent +  |  -
Black Label Society - Hangover Music Vol VI - CD remaster by MC Lurken 24-bit 96kHz flac

Download Anonymously! Get Protected Today And Get your 70% discount


Torrent info

Name:Black Label Society - Hangover Music Vol VI - CD remaster by MC Lurken 24-bit 96kHz flac

Infohash: 1C1EAF0362F404D1BC0DB0D80AFA836082A882AE

Total Size: 1.51 GB

Seeds: 0

Leechers: 0

Stream: Watch Full Movie @ Movie4u

Last Updated: 2021-09-21 22:04:44 (Update Now)

Torrent added: 2012-06-19 12:35:15






Torrent Files List


06 - Won't Find It Here.flac (Size: 1.51 GB) (Files: 21)

 06 - Won't Find It Here.flac

152.82 MB

 11 - Woman Don't Cry.flac

130.20 MB

 12 - No Other.flac

122.41 MB

 10 - Layne.flac

120.70 MB

 09 - Damage Is Done.flac

119.90 MB

 03 - Steppin Stone.flac

115.46 MB

 13 - Whiter Shade Of Pale.flac

109.22 MB

 07 - She Deserves A Free Ride (Val's Song).flac

101.37 MB

 02 - Queen Of Sorrow.flac

101.02 MB

 14 - Once More.flac

100.38 MB

 15 - Fear.flac

100.21 MB

 08 - House Of Doom.flac

91.68 MB

 01 - Crazy Or High.flac

83.36 MB

 04 - Yesterday, Today, Tomorrow.flac

83.16 MB

 05 - Takillya (Estyabon).flac

12.93 MB

 Art

  CD.jpg

752.40 KB

  Back.jpg

82.06 KB

  Front.jpg

48.86 KB

 foo_dr_original.txt

2.00 KB

 foo_dr.txt

1.68 KB

 Checksums.ffp

0.88 KB
 

tracker

leech seeds
 

Torrent description

Black Label Society - Hangover Music Vol. VI - CD remaster by MC Lurken (a.k.a. Beavis39)



!!!!!!!!!!!!!THIS IS NOT AN OFFICIAL REMASTER, THIS IS A FAN RELEASE!!!!!!!!!!!!!!
!!!!!!!!!!!!!THIS IS NOT AN OFFICIAL REMASTER, THIS IS A FAN RELEASE!!!!!!!!!!!!!!



1 - Crazy Or High
2 - Queen Of Sorrow
3 - Steppin Stone
4 - Yesterday, Today, Tomorrow
5 - Takillya (Estyabon)
6 - Wont Find It Here
7 - She Deserves A Free Ride (Vals Song)
8 - House Of Doom
9 - Damage Is Done
10 - Layne
11 - Woman Dont Cry
12 - No Other
13 - Whiter Shade Of Pale
14 - Once More
15 - Fear




foobar2000 1.1.11 / Dynamic Range Meter 1.1.1
log date: 2012-06-19 04:08:21

--------------------------------------------------------------------------------
Analyzed: ? / ?
--------------------------------------------------------------------------------

DR Peak RMS Duration Track
--------------------------------------------------------------------------------
DR6 -0.39 dB -9.98 dB 3:33 ?-01 - Crazy Or High
DR6 -0.07 dB -7.90 dB 4:15 ?-02 - Queen Of Sorrow
DR4 -0.07 dB -6.13 dB 4:55 ?-03 - Steppin Stone
DR7 -0.95 dB -10.23 dB 3:44 ?-04 - Yesterday, Today, Tomorrow
DR9 -3.30 dB -16.66 dB 0:39 ?-05 - Takillya (Estyabon)
DR6 -0.57 dB -8.71 dB 6:26 ?-06 - Wont Find It Here
DR9 -0.37 dB -11.34 dB 4:20 ?-07 - She Deserves A Free Ride (Vals Song)
DR5 -0.07 dB -7.21 dB 3:46 ?-08 - House Of Doom
DR6 -0.23 dB -9.77 dB 5:20 ?-09 - Damage Is Done
DR6 -0.22 dB -10.43 dB 5:16 ?-10 - Layne
DR6 -0.89 dB -9.54 dB 5:39 ?-11 - Woman Dont Cry
DR7 -0.54 dB -9.02 dB 4:59 ?-12 - No Other
DR8 -1.17 dB -11.86 dB 5:08 ?-13 - Whiter Shade Of Pale
DR6 -0.07 dB -8.18 dB 4:07 ?-14 - Once More
DR6 -1.26 dB -9.40 dB 4:38 ?-15 - Fear
--------------------------------------------------------------------------------

Number of tracks: 15
Official DR value: DR6

Samplerate: 96000 Hz
Channels: 2
Bits per sample: 24
Bitrate: 4608 kbps
Codec: PCM


Absolutely no thanks whatsoever to the Green Demon

enjoy :)

related torrents

Torrent name

health leech seeds Size
 


comments (0)

Main Menu