Movies

Blade Runner - On the Edge of Blade Runner avi

  • Download Faster
  • Download torrent
  • Direct Download
  • Rate this torrent +  |  -
Blade Runner - On the Edge of Blade Runner avi

Download Anonymously! Get Protected Today And Get your 70% discount


Torrent info

Name:Blade Runner - On the Edge of Blade Runner avi

Infohash: 69DC659E6D05E0A193FC7CD34AE6573DFBABE4AE

Total Size: 280.58 MB

Seeds: 0

Leechers: 0

Stream: Watch Full Movie @ Movie4u

Last Updated: 2021-07-15 01:53:28 (Update Now)

Torrent added: 2012-07-19 06:21:10






Torrent Files List


Blade Runner - On the Edge of Blade Runner.avi (Size: 280.58 MB) (Files: 1)

 Blade Runner - On the Edge of Blade Runner.avi

280.58 MB
 

tracker

leech seeds
 

Torrent description

---------------------------------------------------------------------------------- General Format : AVI Format/Info : Audio Video Interleave File size : 281 MiB Duration : 52mn 16s Overall bit rate : 750 Kbps Writing library : VirtualDub build 22022/release Video ID : 0 Format : MPEG-4 Visual Format profile : [email protected] Format settings, BVOP : No Format settings, QPel : No Format settings, GMC : No warppoints Format settings, Matrix : Default (H.263) Codec ID : XVID Codec ID/Hint : XviD Duration : 52mn 16s Bit rate : 613 Kbps Width : 512 pixels Height : 288 pixels Display aspect ratio : 16:9 Frame rate : 25.000 fps Color space : YUV Chroma subsampling : 4:2:0 Bit depth : 8 bits Scan type : Progressive Compression mode : Lossy Bits/(Pixel*Frame) : 0.166 Stream size : 229 MiB (82%) Writing library : XviD 0.0.09 (UTC 2003-03-25) Audio ID : 1 Format : MPEG Audio Format version : Version 1 Format profile : Layer 3 Mode : Joint stereo Mode extension : MS Stereo Codec ID : 55 Codec ID/Hint : MP3 Duration : 52mn 16s Bit rate mode : Constant Bit rate : 128 Kbps Channel(s) : 2 channels Sampling rate : 48.0 KHz Compression mode : Lossy Stream size : 47.9 MiB (17%) Alignment : Split accross interleaves Interleave, duration : 40 ms (1.00 video frame) Interleave, preload duration : 500 ms ---------------------------------------------------------------------------------- ENJOY!!! BE SEEING YOU!-------------------------------------Torrent downloaded from http://thepiratebay.se

related torrents

Torrent name

health leech seeds Size
 


comments (0)

Main Menu